6.5/10
6.500
10.0/10
3

Alt-torrent Películas con audio latino para ver y compartir

Erasmus y Paul (Steve Coogan y Paul Rudd) son una pareja gay cuya vida cambia por completo cuando un niño de 10 años aparece en su puerta asegurando que es el nieto de Erasmus. Ni Paul ni Erasmus están preparados para dejar de lado su extravagante estilo de vida y ser padres, pero quizá este pequeño tiene un par de cosas que enseñarles sobre el valor de la familia.

Ttulo original:
Ideal Home
Ao:
2018
Duracin:
91 min
Pas:
USA
Director:
Andrew Fleming
Escritor:
Andrew Fleming
Reparto:
Steve Coogan, Paul Rudd, Jesse Luken, Evan Bittencourt
Productora:
Mustard & Co,Remstar Studios,Indieproduction,Lucky Monkey Pictures,Baby Cow Productions
Gnero:
Drama,Comedia
General
Unique ID                                : 194507418602657920305290354362007606411 (0x9254C424FA3EBFB158BD8361BC96D48B)
Complete name                            : Ideal Home (2019) BRRIP 1080p LAT - FllorTV.mkv
Format                                   : Matroska
Format version                           : Version 4
File size                                : 2.74 GiB
Duration                                 : 1 h 31 min
Overall bit rate                         : 4 296 kb/s
Movie name                               : www.alt-torrent.com
Encoded date                             : UTC 2019-09-08 13:26:58
Writing application                      : mkvmerge v27.0.0 ('Metropolis') 64-bit
Writing library                          : libebml v1.3.6 + libmatroska v1.4.9

Video
ID                                       : 1
Format                                   : AVC
Format/Info                              : Advanced Video Codec
Format profile                           : [email protected]
Format settings                          : CABAC / 4 Ref Frames
Format settings, CABAC                   : Yes
Format settings, ReFrames                : 4 frames
Codec ID                                 : V_MPEG4/ISO/AVC
Duration                                 : 1 h 31 min
Bit rate                                 : 3 500 kb/s
Width                                    : 1 920 pixels
Height                                   : 800 pixels
Display aspect ratio                     : 2.40:1
Frame rate mode                          : Constant
Frame rate                               : 23.976 (24000/1001) FPS
Color space                              : YUV
Chroma subsampling                       : 4:2:0
Bit depth                                : 8 bits
Scan type                                : Progressive
Bits/(Pixel*Frame)                       : 0.095
Stream size                              : 2.21 GiB (81%)
Title                                    : www.alt-torrent.com
Writing library                          : x264 core 157 r2935 545de2f
Encoding settings                        : cabac=1 / ref=3 / deblock=1:0:0 / analyse=0x1:0x111 / me=hex / subme=7 / psy=1 / psy_rd=1.00:0.00 / mixed_ref=1 / me_range=16 / chroma_me=1 / trellis=1 / 8x8dct=0 / cqm=0 / deadzone=21,11 / fast_pskip=1 / chroma_qp_offset=-2 / threads=25 / lookahead_threads=4 / sliced_threads=0 / nr=0 / decimate=1 / interlaced=0 / bluray_compat=0 / constrained_intra=0 / bframes=3 / b_pyramid=2 / b_adapt=1 / b_bias=0 / direct=1 / weightb=1 / open_gop=0 / weightp=2 / keyint=240 / keyint_min=24 / scenecut=40 / intra_refresh=0 / rc_lookahead=40 / rc=abr / mbtree=1 / bitrate=3500 / ratetol=1.0 / qcomp=0.60 / qpmin=0 / qpmax=69 / qpstep=4 / vbv_maxrate=20000 / vbv_bufsize=25000 / nal_hrd=none / filler=0 / ip_ratio=1.40 / aq=1:1.00
Default                                  : Yes
Forced                                   : No
Color range                              : Limited
Color primaries                          : BT.709
Transfer characteristics                 : BT.709
Matrix coefficients                      : BT.709

Audio #1
ID                                       : 2
Format                                   : AC-3
Format/Info                              : Audio Coding 3
Commercial name                          : Dolby Digital
Codec ID                                 : A_AC3
Duration                                 : 1 h 31 min
Bit rate mode                            : Constant
Bit rate                                 : 384 kb/s
Channel(s)                               : 6 channels
Channel layout                           : L R C LFE Ls Rs
Sampling rate                            : 48.0 kHz
Frame rate                               : 31.250 FPS (1536 SPF)
Bit depth                                : 16 bits
Compression mode                         : Lossy
Delay relative to video                  : -5 ms
Stream size                              : 251 MiB (9%)
Title                                    : www.alt-torrent.com
Language                                 : Spanish
Service kind                             : Complete Main
Default                                  : Yes
Forced                                   : No

Audio #2
ID                                       : 3
Format                                   : AC-3
Format/Info                              : Audio Coding 3
Commercial name                          : Dolby Digital
Codec ID                                 : A_AC3
Duration                                 : 1 h 31 min
Bit rate mode                            : Constant
Bit rate                                 : 448 kb/s
Channel(s)                               : 6 channels
Channel layout                           : L R C LFE Ls Rs
Sampling rate                            : 48.0 kHz
Frame rate                               : 31.250 FPS (1536 SPF)
Bit depth                                : 16 bits
Compression mode                         : Lossy
Delay relative to video                  : -5 ms
Stream size                              : 293 MiB (10%)
Title                                    : www.alt-torrent.com
Language                                 : English
Service kind                             : Complete Main
Default                                  : No
Forced                                   : No

Text #1
ID                                       : 4
Format                                   : UTF-8
Codec ID                                 : S_TEXT/UTF8
Codec ID/Info                            : UTF-8 Plain Text
Duration                                 : 2 s 100 ms
Bit rate                                 : 49 b/s
Count of elements                        : 1
Stream size                              : 13.0 Bytes (0%)
Title                                    : www.alt-torrent.com
Language                                 : Spanish
Default                                  : Yes
Forced                                   : Yes

Text #2
ID                                       : 5
Format                                   : UTF-8
Codec ID                                 : S_TEXT/UTF8
Codec ID/Info                            : UTF-8 Plain Text
Duration                                 : 1 h 23 min
Bit rate                                 : 68 b/s
Count of elements                        : 1352
Stream size                              : 42.1 KiB (0%)
Title                                    : www.alt-torrent.com
Language                                 : Spanish
Default                                  : No
Forced                                   : No


BitRate : 4 296 kb/s
Audio Latino : AC3 5.1
Audio Inglés : AC3 5.1

* Chrome esta marcando los .torrent como archivos peligrosos,
Descarguenlos con confianza, son los mismos torrent de siempre.

 AMBOS AUDIOS FINALES
LATINO AC3 5.1 - INGLES AC3 5.1
+ SUBTITULO SRT LATINO