7.5/10
306.611
9.1/10
20

Alt-torrent Películas con audio latino para ver y compartir

El legendario asesino John Wick (Keanu Reeves) se ve obligado a salir del retiro por un ex-asociado que planea obtener el control de un misterioso grupo internacional de asesinos. Obligado a ayudarlo por un juramento de sangre, John emprende un viaje a Roma lleno de adrenalina estremecedora para pelear contra los asesinos más peligrosos del mundo.

Título original:
John Wick: Chapter 2
Año:
2017
Duración:
122 min
País:
USA, Hong Kong
Director:
Chad Stahelski
Escritor:
Derek Kolstad, Derek Kolstad (based on characters created by)
Reparto:
Keanu Reeves, Riccardo Scamarcio, Ian McShane, Ruby Rose
Productora:
Thunder Road Pictures,87Eleven,Lionsgate
Género:
Suspense,Acción,Crimen
General
Unique ID                                : 148535365560484063633534004185235018731 (0x6FBEDEEEEF1D193F78471487FD2553EB)
Complete name                            : /home/zeiz/data/John Wick - Chapter 2 (2017) FullHD 1080p LAT - CharlX/John Wick - Chapter 2 (2017) FullHD 1080p LAT - CharlX.mkv
Format                                   : Matroska
Format version                           : Version 4 / Version 2
File size                                : 4.24 GiB
Duration                                 : 2h 2mn
Overall bit rate                         : 4 965 Kbps
Movie name                               : John Wick - Chapter 2 (2017) FullHD 1080p LAT - CharlX
Encoded date                             : UTC 2019-05-24 17:04:44
Writing application                      : mkvmerge v26.0.0 ('In The Game') 64-bit
Writing library                          : Lavf58.20.100
Attachements                             : John Wick - Chapter 2 (2017) FullHD 1080p LAT - CharlX.jpg
Uploader                                 : CharlX
Web                                      : www.alt-torrent.com
DURATION                                 : 01:49:51.835000000
NUMBER_OF_FRAMES                         : 1340
NUMBER_OF_BYTES                          : 11062447
_STATISTICS_WRITING_APP                  : mkvmerge v26.0.0 ('In The Game') 64-bit
_STATISTICS_WRITING_DATE_UTC             : 2019-05-24 17:04:44
_STATISTICS_TAGS                         : BPS DURATION NUMBER_OF_FRAMES NUMBER_OF_BYTES

Video
ID                                       : 1
Format                                   : AVC
Format/Info                              : Advanced Video Codec
Format profile                           : [email protected]
Format settings, CABAC                   : Yes
Format settings, ReFrames                : 4 frames
Codec ID                                 : V_MPEG4/ISO/AVC
Duration                                 : 2h 2mn
Bit rate                                 : 3 586 Kbps
Width                                    : 1 920 pixels
Height                                   : 1 080 pixels
Display aspect ratio                     : 16:9
Frame rate mode                          : Constant
Frame rate                               : 23.976 fps
Color space                              : YUV
Chroma subsampling                       : 4:2:0
Bit depth                                : 8 bits
Scan type                                : Progressive
Bits/(Pixel*Frame)                       : 0.072
Stream size                              : 3.07 GiB (72%)
Title                                    : John Wick - Chapter 2 (2017) FullHD 1080p LAT - CharlX
Writing library                          : x264 core 157 r2935 545de2f
Encoding settings                        : cabac=1 / ref=4 / deblock=1:0:0 / analyse=0x3:0x133 / me=tesa / subme=11 / psy=1 / psy_rd=1.00:0.00 / mixed_ref=1 / me_range=24 / chroma_me=1 / trellis=2 / 8x8dct=1 / cqm=0 / deadzone=21,11 / fast_pskip=0 / chroma_qp_offset=-2 / threads=34 / lookahead_threads=8 / sliced_threads=0 / nr=0 / decimate=1 / interlaced=0 / bluray_compat=0 / constrained_intra=0 / bframes=16 / b_pyramid=2 / b_adapt=2 / b_bias=0 / direct=3 / weightb=1 / open_gop=0 / weightp=2 / keyint=240 / keyint_min=24 / scenecut=40 / intra_refresh=0 / rc_lookahead=60 / rc=crf / mbtree=1 / crf=20.0 / qcomp=0.60 / qpmin=0 / qpmax=69 / qpstep=4 / vbv_maxrate=62500 / vbv_bufsize=78125 / crf_max=0.0 / nal_hrd=none / filler=0 / ip_ratio=1.40 / aq=1:1.00
Language                                 : English
Default                                  : Yes
Forced                                   : No
Color primaries                          : BT.709
Transfer characteristics                 : BT.709
Matrix coefficients                      : BT.709
DURATION                                 : 02:02:22.377000000
NUMBER_OF_FRAMES                         : 176041
NUMBER_OF_BYTES                          : 3367242984
_STATISTICS_WRITING_APP                  : mkvmerge v26.0.0 ('In The Game') 64-bit
_STATISTICS_WRITING_DATE_UTC             : 2019-05-24 17:04:44
_STATISTICS_TAGS                         : BPS DURATION NUMBER_OF_FRAMES NUMBER_OF_BYTES

Audio #1
ID                                       : 2
Format                                   : AC-3
Format/Info                              : Audio Coding 3
Mode extension                           : CM (complete main)
Format settings, Endianness              : Big
Codec ID                                 : A_AC3
Duration                                 : 2h 2mn
Bit rate mode                            : Constant
Bit rate                                 : 640 Kbps
Channel(s)                               : 6 channels
Channel positions                        : Front: L C R, Side: L R, LFE
Sampling rate                            : 48.0 KHz
Bit depth                                : 16 bits
Compression mode                         : Lossy
Stream size                              : 560 MiB (13%)
Title                                    : Latino
Language                                 : Latin
Default                                  : Yes
Forced                                   : No
DURATION                                 : 02:02:22.432000000
NUMBER_OF_FRAMES                         : 229451
NUMBER_OF_BYTES                          : 587394560
_STATISTICS_WRITING_APP                  : mkvmerge v26.0.0 ('In The Game') 64-bit
_STATISTICS_WRITING_DATE_UTC             : 2019-05-24 17:04:44
_STATISTICS_TAGS                         : BPS DURATION NUMBER_OF_FRAMES NUMBER_OF_BYTES

Audio #2
ID                                       : 3
Format                                   : AC-3
Format/Info                              : Audio Coding 3
Mode extension                           : CM (complete main)
Format settings, Endianness              : Big
Codec ID                                 : A_AC3
Duration                                 : 2h 2mn
Bit rate mode                            : Constant
Bit rate                                 : 640 Kbps
Channel(s)                               : 6 channels
Channel positions                        : Front: L C R, Side: L R, LFE
Sampling rate                            : 48.0 KHz
Bit depth                                : 16 bits
Compression mode                         : Lossy
Delay relative to video                  : -5ms
Stream size                              : 560 MiB (13%)
Title                                    : Inglés
Language                                 : English
Default                                  : No
Forced                                   : No
DURATION                                 : 02:02:22.400000000
NUMBER_OF_FRAMES                         : 229450
NUMBER_OF_BYTES                          : 587392000
_STATISTICS_WRITING_APP                  : mkvmerge v26.0.0 ('In The Game') 64-bit
_STATISTICS_WRITING_DATE_UTC             : 2019-05-24 17:04:44
_STATISTICS_TAGS                         : BPS DURATION NUMBER_OF_FRAMES NUMBER_OF_BYTES

Text #1
ID                                       : 4
Format                                   : PGS
Muxing mode                              : zlib
Codec ID                                 : S_HDMV/PGS
Codec ID/Info                            : The same subtitle format used on BDs/HD-DVDs
Title                                    : www.alt-torrent.com
Language                                 : Latin
Default                                  : Yes
Forced                                   : Yes

Text #2
ID                                       : 5
Format                                   : PGS
Muxing mode                              : zlib
Codec ID                                 : S_HDMV/PGS
Codec ID/Info                            : The same subtitle format used on BDs/HD-DVDs
Title                                    : Latino
Language                                 : Latin
Default                                  : No
Forced                                   : No

Text #3
ID                                       : 6
Format                                   : PGS
Muxing mode                              : zlib
Codec ID                                 : S_HDMV/PGS
Codec ID/Info                            : The same subtitle format used on BDs/HD-DVDs
Title                                    : Inglés
Language                                 : English
Default                                  : No
Forced                                   : No

Menu
00:00:00.000                             : :Chapter 1
00:06:31.683                             : :Chapter 2
00:16:57.934                             : :Chapter 3
00:26:35.594                             : :Chapter 4
00:34:38.159                             : :Chapter 5
00:42:07.817                             : :Chapter 6
00:48:07.051                             : :Chapter 7
00:56:41.773                             : :Chapter 8
01:01:42.824                             : :Chapter 9
01:10:27.682                             : :Chapter 10
01:17:15.923                             : :Chapter 11
01:24:22.641                             : :Chapter 12
01:32:11.276                             : :Chapter 13
01:40:01.329                             : :Chapter 14
01:46:34.847                             : :Chapter 15
01:54:01.043                             : :Chapter 16

BitRate : 4 965 Kbps
Audio Latino : AC3 5.1
Audio Inglés : AC3 5.1

* Chrome esta marcando los .torrent como archivos peligrosos,
Descarguenlos con confianza, son los mismos torrent de siempre.

 (Para los que no saben que es PLACEBO)
Es la calidad maxima de encodeo (ripeo) que se puede lograr. Esta tarda mucho mas tiempo que un ripeo en un preset mas rapido y se configura en Calidad Constante (CRF), lo que se acerca mas a la calidad del Bluray sin ocupar tanto espacio.


Calidad Versión Atributo Tamaño link
BR-RIP 1080p 2.42 GB john-wick-chapter-2-2017-1080p-lat.html
FullHD 1080p 9.24 GB john-wick-chapter-2-2017-fullhd-lat.html
WEBDL 1080p 4.54 GB john-wick-chapter-2-2017-webdl-lat.html