7.8/10
131.714
8.9/10
41

Alt-torrent Películas con audio latino para ver y compartir

John Wick (Keanu Reeves) regresa a la acción, solo que esta vez con una recompensa de 14 millones de dólares sobre su cabeza y con un ejército de mercenarios intentando darle caza. Tras asesinar a uno de los miembros del gremio de asesinos al que pertenecía, Wick es expulsado de la organización, pasando a convertirse en el centro de atención de multitud de asesinos a sueldo que esperan detrás de cada esquina para tratar de deshacerse de él.

Título original:
John Wick: Chapter 3 – Parabellum
Año:
2019
Duración:
131 min
País:
USA
Director:
Chad Stahelski
Escritor:
Derek Kolstad (screenplay by), Shay Hatten (screenplay by), Chris Collins (screenplay by), Marc Abrams (screenplay by), Derek Kolstad (story by), Derek Kolstad (based on characters created by)
Reparto:
Keanu Reeves, Halle Berry, Ian McShane, Laurence Fishburne
Productora:
Lionsgate,Summit Entertainment,Thunder Road Pictures,87Eleven Productions
Género:
Crimen,Acción,Suspense
General
Unique ID                                : 293244120561260624477164455545589283662 (0xDC9CC36658DD7604C42CC1F5FF853B4E)
Complete name                            : John Wick - Chapter 3 - Parabellum (2019) BR-RIP 1080p LAT - FllorTV.mkv
Format                                   : Matroska
Format version                           : Version 4
File size                                : 5.56 GiB
Duration                                 : 2 h 11 min
Overall bit rate                         : 6 070 kb/s
Movie name                               : www.alt-torrent.com
Encoded date                             : UTC 2019-08-14 01:52:19
Writing application                      : mkvmerge v27.0.0 ('Metropolis') 64-bit
Writing library                          : libebml v1.3.6 + libmatroska v1.4.9

Video
ID                                       : 1
Format                                   : AVC
Format/Info                              : Advanced Video Codec
Format profile                           : [email protected]
Format settings                          : CABAC / 2 Ref Frames
Format settings, CABAC                   : Yes
Format settings, ReFrames                : 2 frames
Codec ID                                 : V_MPEG4/ISO/AVC
Duration                                 : 2 h 11 min
Bit rate                                 : 5 000 kb/s
Width                                    : 1 920 pixels
Height                                   : 800 pixels
Display aspect ratio                     : 2.40:1
Frame rate mode                          : Constant
Frame rate                               : 23.976 (24000/1001) FPS
Color space                              : YUV
Chroma subsampling                       : 4:2:0
Bit depth                                : 8 bits
Scan type                                : Progressive
Bits/(Pixel*Frame)                       : 0.136
Stream size                              : 4.56 GiB (82%)
Title                                    : www.alt-torrent.com
Writing library                          : x264 core 155 r2901
Encoding settings                        : cabac=1 / ref=2 / deblock=1:0:0 / analyse=0x3:0x133 / me=hex / subme=7 / psy=1 / psy_rd=1.00:0.00 / mixed_ref=0 / me_range=16 / chroma_me=1 / trellis=1 / 8x8dct=1 / cqm=0 / deadzone=21,11 / fast_pskip=1 / chroma_qp_offset=-2 / threads=12 / lookahead_threads=2 / sliced_threads=0 / nr=0 / decimate=1 / interlaced=0 / bluray_compat=0 / constrained_intra=0 / bframes=3 / b_pyramid=0 / b_adapt=1 / b_bias=0 / direct=0 / weightb=1 / open_gop=0 / weightp=2 / keyint=239 / keyint_min=23 / scenecut=40 / intra_refresh=0 / rc_lookahead=40 / rc=2pass / mbtree=1 / bitrate=5000 / ratetol=1.0 / qcomp=0.60 / qpmin=10 / qpmax=69 / qpstep=4 / cplxblur=20.0 / qblur=0.5 / vbv_maxrate=5500 / vbv_bufsize=24000 / nal_hrd=none / filler=0 / ip_ratio=1.40 / aq=3:1.00
Default                                  : Yes
Forced                                   : No

Audio #1
ID                                       : 2
Format                                   : AC-3
Format/Info                              : Audio Coding 3
Commercial name                          : Dolby Digital
Codec ID                                 : A_AC3
Duration                                 : 2 h 11 min
Bit rate mode                            : Constant
Bit rate                                 : 640 kb/s
Channel(s)                               : 6 channels
Channel layout                           : L R C LFE Ls Rs
Sampling rate                            : 48.0 kHz
Frame rate                               : 31.250 FPS (1536 SPF)
Bit depth                                : 16 bits
Compression mode                         : Lossy
Stream size                              : 600 MiB (11%)
Title                                    : www.alt-torrent.com
Language                                 : Spanish
Service kind                             : Complete Main
Default                                  : Yes
Forced                                   : No

Audio #2
ID                                       : 3
Format                                   : AC-3
Format/Info                              : Audio Coding 3
Commercial name                          : Dolby Digital
Codec ID                                 : A_AC3
Duration                                 : 2 h 11 min
Bit rate mode                            : Constant
Bit rate                                 : 448 kb/s
Channel(s)                               : 6 channels
Channel layout                           : L R C LFE Ls Rs
Sampling rate                            : 48.0 kHz
Frame rate                               : 31.250 FPS (1536 SPF)
Bit depth                                : 16 bits
Compression mode                         : Lossy
Stream size                              : 420 MiB (7%)
Title                                    : www.alt-torrent.com
Language                                 : English
Service kind                             : Complete Main
Default                                  : No
Forced                                   : No

Text #1
ID                                       : 4
Format                                   : UTF-8
Codec ID                                 : S_TEXT/UTF8
Codec ID/Info                            : UTF-8 Plain Text
Duration                                 : 1 h 30 min
Bit rate                                 : 0 b/s
Count of elements                        : 30
Stream size                              : 640 Bytes (0%)
Title                                    : www.alt-torrent.com
Language                                 : Spanish
Default                                  : Yes
Forced                                   : Yes

Text #2
ID                                       : 5
Format                                   : UTF-8
Codec ID                                 : S_TEXT/UTF8
Codec ID/Info                            : UTF-8 Plain Text
Duration                                 : 2 h 0 min
Bit rate                                 : 24 b/s
Count of elements                        : 733
Stream size                              : 22.0 KiB (0%)
Title                                    : www.alt-torrent.com
Language                                 : Spanish
Default                                  : No
Forced                                   : No


BitRate : 6 070 kb/s
Audio Latino : AC3 5.1
Audio Inglés : AC3 5.1

* Chrome esta marcando los .torrent como archivos peligrosos,
Descarguenlos con confianza, son los mismos torrent de siempre.

 AMBOS AUDIOS FINALES
LATINO AC3 5.1 - INGLES AC3 5.1
+ SUBTITULO SRT LATINO


Calidad Versión Atributo Tamaño link
BR-RIP 720p 3.29 GB john-wick-chapter-3-parabellum-720p-br-rip-720p-lat.html