6.3/10
111.902
9.0/10
3

Alt-torrent Películas con audio latino para ver y compartir

Johnny English, el mejor espía del MI7 (Rowan Atkinson) parece haber desaparecido de la faz de la Tierra pero, en realidad, ha estado perfeccionado sus extraordinarias habilidades en una lejana región de Oriente. Cuando sus jefes se enteran de que alguien planea un atentado contra el primer ministro chino, no les queda más remedio que localizar al poco ortodoxo agente, que ahora tendrá la posibilidad de redimirse y utilizar lo último en tecnología punta para desenredar una complicada conspiración que implica al KGB, a la CIA e incluso al MI7. Faltan pocos días para que se celebre una conferencia estatal y él deberá usar todos sus trucos para proteger a todos los participantes. En la mente de Johnny English el desastre puede ser una opción, pero el fracaso, jamás.

Título original:
Johnny English Reborn
Año:
2011
Duración:
101 min
País:
USA, France, UK
Director:
Oliver Parker
Escritor:
Hamish McColl (screenplay), William Davies (story), Neal Purvis (characters), Robert Wade (characters)
Reparto:
Roger Barclay, Eric Carte, Rowan Atkinson, Togo Igawa
Productora:
Universal Pictures,Relativity Media,StudioCanal,Working Title Films
Género:
Crimen,Aventura,Acción,Comedia,Suspense
Johnny English Reborn (2011) FullHD LAT

Format                      : Matroska
Format version              : Version 4 / Version 2
File size                   : 3.88 GiB
Duration                    : 1 h 41 min
Overall bit rate            : 5 481 kb/s
Movie name                  : www.alt-torrent.com - By FllorTV
Encoded date                : UTC 2019-01-09 14:38:51
Writing application         : mkvmerge v30.1.0 ('Forever And More') 64-bit
Writing library             : libebml v1.3.6 + libmatroska v1.4.9

Video
ID                          : 1
Format                      : AVC
Format/Info                 : Advanced Video Codec
Format profile              : [email protected]
Format settings             : CABAC / 5 Ref Frames
Format settings, CABAC      : Yes
Format settings, RefFrames  : 5 frames
Codec ID                    : V_MPEG4/ISO/AVC
Duration                    : 1 h 41 min
Bit rate                    : 4 200 kb/s
Width                       : 1 920 pixels
Height                      : 1 080 pixels
Display aspect ratio        : 16:9
Frame rate mode             : Constant
Frame rate                  : 23.976 (24000/1001) FPS
Color space                 : YUV
Chroma subsampling          : 4:2:0
Bit depth                   : 8 bits
Scan type                   : Progressive
Bits/(Pixel*Frame)          : 0.084
Stream size                 : 2.97 GiB (77%)
Title                       : www.alt-torrent.com - By FllorTV
Writing library             : x264 core 155 r2901 7d0ff22
Encoding settings           : cabac=1 / ref=5 / deblock=1:-3:-3 / analyse=0x3:0x133 / me=umh / subme=10 / psy=1 / psy_rd=1.00:0.15 / mixed_ref=1 / me_range=36 / chroma_me=1 / trellis=2 / 8x8dct=1 / cqm=0 / deadzone=21,11 / fast_pskip=1 / chroma_qp_offset=-3 / threads=24 / lookahead_threads=4 / sliced_threads=0 / nr=0 / decimate=1 / interlaced=0 / bluray_compat=0 / constrained_intra=0 / bframes=8 / b_pyramid=2 / b_adapt=2 / b_bias=0 / direct=3 / weightb=1 / open_gop=0 / weightp=2 / keyint=240 / keyint_min=24 / scenecut=40 / intra_refresh=0 / rc_lookahead=60 / rc=2pass / mbtree=1 / bitrate=4200 / ratetol=1.0 / qcomp=0.60 / qpmin=0 / qpmax=69 / qpstep=4 / cplxblur=20.0 / qblur=0.5 / vbv_maxrate=62500 / vbv_bufsize=78125 / nal_hrd=none / filler=0 / ip_ratio=1.40 / aq=1:1.00
Default                     : Yes
Forced                      : No
Color range                 : Limited
Color primaries             : BT.709
Transfer characteristics    : BT.709
Matrix coefficients         : BT.709

Audio #1
ID                          : 2
Format                      : AC-3
Format/Info                 : Audio Coding 3
Format settings, Endianness : Big
Codec ID                    : A_AC3
Duration                    : 1 h 41 min
Bit rate mode               : Constant
Bit rate                    : 640 kb/s
Channel(s)                  : 6 channels
Channel positions           : Front: L C R, Side: L R, LFE
Sampling rate               : 48.0 kHz
Frame rate                  : 31.250 FPS (1536 SPF)
Bit depth                   : 16 bits
Compression mode            : Lossy
Delay relative to video     : -5 ms
Stream size                 : 464 MiB (12%)
Title                       : Latino
Language                    : Spanish
Service kind                : Complete Main
Default                     : Yes
Forced                      : No

Audio #2
ID                          : 3
Format                      : AC-3
Format/Info                 : Audio Coding 3
Format settings, Endianness : Big
Codec ID                    : A_AC3
Duration                    : 1 h 41 min
Bit rate mode               : Constant
Bit rate                    : 640 kb/s
Channel(s)                  : 6 channels
Channel positions           : Front: L C R, Side: L R, LFE
Sampling rate               : 48.0 kHz
Frame rate                  : 31.250 FPS (1536 SPF)
Bit depth                   : 16 bits
Compression mode            : Lossy
Stream size                 : 464 MiB (12%)
Title                       : English
Language                    : English
Service kind                : Complete Main
Default                     : No
Forced                      : No

Text #1
ID                          : 4
Format                      : UTF-8
Codec ID                    : S_TEXT/UTF8
Codec ID/Info               : UTF-8 Plain Text
Duration                    : 1 h 34 min
Bit rate                    : 0 b/s
Count of elements           : 6
Stream size                 : 116 Bytes (0%)
Title                       : Forzados
Language                    : Spanish
Default                     : Yes
Forced                      : Yes

Text #2
ID                          : 5
Format                      : UTF-8
Codec ID                    : S_TEXT/UTF8
Codec ID/Info               : UTF-8 Plain Text
Duration                    : 1 h 38 min
Bit rate                    : 42 b/s
Count of elements           : 895
Stream size                 : 30.5 KiB (0%)
Title                       : Completos
Language                    : Spanish
Default                     : No
Forced                      : No

Menu
00:00:00.000                : :Capítulo 01
00:05:00.000                : :Capítulo 02
00:10:00.000                : :Capítulo 03
00:15:00.000                : :Capítulo 04
00:20:00.000                : :Capítulo 05
00:25:00.000                : :Capítulo 06
00:30:00.000                : :Capítulo 07
00:35:00.000                : :Capítulo 08
00:40:00.000                : :Capítulo 09
00:45:00.000                : :Capítulo 10
00:50:00.000                : :Capítulo 11
00:55:00.000                : :Capítulo 12
01:00:00.000                : :Capítulo 13
01:05:00.000                : :Capítulo 14
01:10:00.000                : :Capítulo 15
01:15:00.000                : :Capítulo 16
01:20:00.000                : :Capítulo 17
01:25:00.000                : :Capítulo 18


BitRate : 5 481 kb/s
Audio Latino : AC3 5.1
Audio Inglés : AC3 5.1

* Chrome esta marcando los .torrent como archivos peligrosos,
Descarguenlos con confianza, son los mismos torrent de siempre.