6.2/10
46.897
3.5/10
2

Alt-torrent Películas con audio latino para ver y compartir

Tercera entrega de la saga cómica Johnny English, con Rowan Atkison de regreso en el papel del muy querido agente secreto. Esta nueva aventura empieza cuando un ciberataque revela la identidad de todos los agentes de incógnito de Gran Bretaña, por lo que Johnny English es la última esperanza para los servicios secretos. Al verse sacado de su plácida vida de jubilado, English se lanza sin contemplaciones a la busca y captura del hacker que lo planeó todo. Nuestro héroe, un hombre de pocas habilidades y métodos analógicos, deberá superar los retos que plantea la tecnología moderna para que su misión se convierta en un éxito.

Título original:
Johnny English Strikes Again
Año:
2018
Duración:
89 min
País:
UK, France, USA
Director:
David Kerr
Escritor:
William Davies (screenplay by)
Reparto:
Kevin Eldon, Emma Thompson, Adam James, Rowan Atkinson
Productora:
Universal Pictures,StudioCanal,Working Title Films,Perfect World Pictures
Género:
Aventura,Familia,Acción,Comedia
Format                                   : Matroska
Format version                           : Version 4
File size                                : 2.10 GiB
Duration                                 : 1 h 28 min
Overall bit rate                         : 3 397 kb/s
Movie name                               : www.alt-torrent.com - By FllorTV
Encoded date                             : UTC 2019-01-09 02:05:30
Writing application                      : mkvmerge v27.0.0 ('Metropolis') 64-bit
Writing library                          : libebml v1.3.6 + libmatroska v1.4.9

Video
ID                                       : 1
Format                                   : AVC
Format/Info                              : Advanced Video Codec
Format profile                           : [email protected]
Format settings                          : CABAC / 5 Ref Frames
Format settings, CABAC                   : Yes
Format settings, ReFrames                : 5 frames
Codec ID                                 : V_MPEG4/ISO/AVC
Duration                                 : 1 h 28 min
Bit rate                                 : 2 500 kb/s
Width                                    : 1 280 pixels
Height                                   : 534 pixels
Display aspect ratio                     : 2.40:1
Frame rate mode                          : Constant
Frame rate                               : 23.976 (24000/1001) FPS
Color space                              : YUV
Chroma subsampling                       : 4:2:0
Bit depth                                : 8 bits
Scan type                                : Progressive
Bits/(Pixel*Frame)                       : 0.153
Stream size                              : 1.55 GiB (74%)
Title                                    : www.alt-torrent.com - By FllorTV
Writing library                          : x264 core 155 r2901
Encoding settings                        : cabac=1 / ref=5 / deblock=1:0:0 / analyse=0x3:0x133 / me=umh / subme=8 / psy=1 / psy_rd=1.00:0.00 / mixed_ref=0 / me_range=16 / chroma_me=1 / trellis=1 / 8x8dct=1 / cqm=0 / deadzone=21,11 / fast_pskip=1 / chroma_qp_offset=-2 / threads=17 / lookahead_threads=2 / sliced_threads=0 / nr=0 / decimate=1 / interlaced=0 / bluray_compat=0 / constrained_intra=0 / bframes=3 / b_pyramid=0 / b_adapt=2 / b_bias=0 / direct=3 / weightb=1 / open_gop=0 / weightp=2 / keyint=239 / keyint_min=23 / scenecut=40 / intra_refresh=0 / rc_lookahead=50 / rc=2pass / mbtree=1 / bitrate=2500 / ratetol=1.0 / qcomp=0.60 / qpmin=10 / qpmax=69 / qpstep=4 / cplxblur=20.0 / qblur=0.5 / vbv_maxrate=50000 / vbv_bufsize=24000 / nal_hrd=none / filler=0 / ip_ratio=1.40 / aq=3:1.00
Default                                  : Yes
Forced                                   : No

Audio #1
ID                                       : 2
Format                                   : AC-3
Format/Info                              : Audio Coding 3
Commercial name                          : Dolby Digital
Codec ID                                 : A_AC3
Duration                                 : 1 h 28 min
Bit rate mode                            : Constant
Bit rate                                 : 448 kb/s
Channel(s)                               : 6 channels
Channel layout                           : L R C LFE Ls Rs
Sampling rate                            : 48.0 kHz
Frame rate                               : 31.250 FPS (1536 SPF)
Bit depth                                : 16 bits
Compression mode                         : Lossy
Delay relative to video                  : -18 ms
Stream size                              : 284 MiB (13%)
Title                                    : Latino
Language                                 : Spanish
Service kind                             : Complete Main
Default                                  : Yes
Forced                                   : No

Audio #2
ID                                       : 3
Format                                   : AC-3
Format/Info                              : Audio Coding 3
Commercial name                          : Dolby Digital
Codec ID                                 : A_AC3
Duration                                 : 1 h 28 min
Bit rate mode                            : Constant
Bit rate                                 : 448 kb/s
Channel(s)                               : 6 channels
Channel layout                           : L R C LFE Ls Rs
Sampling rate                            : 48.0 kHz
Frame rate                               : 31.250 FPS (1536 SPF)
Bit depth                                : 16 bits
Compression mode                         : Lossy
Delay relative to video                  : -18 ms
Stream size                              : 284 MiB (13%)
Title                                    : Ingles
Language                                 : English
Service kind                             : Complete Main
Default                                  : No
Forced                                   : No

Text #1
ID                                       : 4
Format                                   : UTF-8
Codec ID                                 : S_TEXT/UTF8
Codec ID/Info                            : UTF-8 Plain Text
Duration                                 : 1 h 3 min
Bit rate                                 : 1 b/s
Count of elements                        : 25
Stream size                              : 586 Bytes (0%)
Title                                    : Forzados
Language                                 : Spanish
Default                                  : Yes
Forced                                   : No

Text #2
ID                                       : 5
Format                                   : UTF-8
Codec ID                                 : S_TEXT/UTF8
Codec ID/Info                            : UTF-8 Plain Text
Duration                                 : 1 h 23 min
Bit rate                                 : 53 b/s
Count of elements                        : 1026
Stream size                              : 32.7 KiB (0%)
Title                                    : Completos
Language                                 : Spanish
Default                                  : No
Forced                                   : No

BitRate : 3 397 kb/s
Audio Latino : AC3 2.0
Audio Inglés : AC3 2.0

* Chrome esta marcando los .torrent como archivos peligrosos,
Descarguenlos con confianza, son los mismos torrent de siempre.



Calidad Versión Atributo Tamaño link
BR-RIP 1080p 3.26 GB johnny-english-strikes-again-2018-1080p-lat.html
BR-RIP 1080p [Fixed] 3.34 GB johnny-english-strikes-again-fixed-2018-1080p-lat.html