6.5/10
3.422
6.7/10
3

Alt-torrent Películas con audio latino para ver y compartir

La Liga de la Justicia se enfrenta a una nueva y poderosa amenaza: ¡los Cinco Fatal! Superman, Batman y Wonder Woman buscan respuestas mientras el trío de Mano, Persuader y Tharok aterrorizan a Metropolis en busca de la linterna verde en ciernes, Jessica Cruz. Con su ayuda involuntaria, pretenden liberar a los miembros restantes de Fatal Five, Emerald Empress y Validus, para llevar a cabo su siniestro plan. Pero la Liga de la Justicia también ha descubierto un aliado de otro momento en el peculiar Star Boy, lleno de poder volátil, ¿podría ser la clave para frustrar a los Fatal Five? ¡Una batalla épica contra el mal final te espera!

Título original:
Justice League vs. the Fatal Five
Año:
2019
Duración:
N/A
País:
USA
Director:
Sam Liu
Escritor:
Alan Burnett, Eric Carrasco, James Krieg, Jim Shooter (comic)
Reparto:
Diane Guerrero, Noel Fisher, Tara Strong, Elyes Gabel
Productora:
Warner Bros. Animation,DC Entertainment
Género:
Animación,Acción,Ciencia ficción
Justice League vs the Fatal Five (2019) FullHD 1080p LAT - FllorTV

Format                      : Matroska
Format version              : Version 4 / Version 2
File size                   : 3.97 GiB
Duration                    : 1 h 17 min
Overall bit rate            : 7 338 kb/s
Movie name                  : www.alt-torrent.com / - By FllorTV
Encoded date                : UTC 2019-04-11 11:27:45
Writing application         : mkvmerge v31.0.0 ('Dolores In A Shoestand') 64-bit
Writing library             : libebml v1.3.6 + libmatroska v1.4.9

Video
ID                          : 1
Format                      : AVC
Format/Info                 : Advanced Video Codec
Format profile              : [email protected]
Format settings             : CABAC / 4 Ref Frames
Format settings, CABAC      : Yes
Format settings, RefFrames  : 4 frames
Codec ID                    : V_MPEG4/ISO/AVC
Duration                    : 1 h 17 min
Bit rate                    : 6 564 kb/s
Width                       : 1 920 pixels
Height                      : 1 080 pixels
Display aspect ratio        : 16:9
Frame rate mode             : Constant
Frame rate                  : 23.976 (24000/1001) FPS
Color space                 : YUV
Chroma subsampling          : 4:2:0
Bit depth                   : 8 bits
Scan type                   : Progressive
Bits/(Pixel*Frame)          : 0.132
Stream size                 : 3.56 GiB (90%)
Title                       : www.alt-torrent.com / - By FllorTV
Writing library             : x264 core 157 r2970 5493be8
Encoding settings           : cabac=1 / ref=4 / deblock=1:1:1 / analyse=0x3:0x113 / me=umh / subme=8 / psy=1 / psy_rd=0.40:0.00 / mixed_ref=1 / me_range=16 / chroma_me=1 / trellis=1 / 8x8dct=1 / cqm=0 / deadzone=21,11 / fast_pskip=1 / chroma_qp_offset=-2 / threads=30 / lookahead_threads=5 / sliced_threads=0 / nr=0 / decimate=1 / interlaced=0 / bluray_compat=0 / constrained_intra=0 / bframes=5 / b_pyramid=2 / b_adapt=1 / b_bias=0 / direct=3 / weightb=1 / open_gop=0 / weightp=2 / keyint=250 / keyint_min=23 / scenecut=40 / intra_refresh=0 / rc_lookahead=50 / rc=2pass / mbtree=1 / bitrate=6564 / ratetol=1.0 / qcomp=0.60 / qpmin=0 / qpmax=69 / qpstep=4 / cplxblur=20.0 / qblur=0.5 / ip_ratio=1.40 / aq=1:0.60
Default                     : Yes
Forced                      : No

Audio #1
ID                          : 2
Format                      : AC-3
Format/Info                 : Audio Coding 3
Format settings, Endianness : Big
Codec ID                    : A_AC3
Duration                    : 1 h 17 min
Bit rate mode               : Constant
Bit rate                    : 384 kb/s
Channel(s)                  : 6 channels
Channel positions           : Front: L C R, Side: L R, LFE
Sampling rate               : 48.0 kHz
Frame rate                  : 31.250 FPS (1536 SPF)
Bit depth                   : 16 bits
Compression mode            : Lossy
Stream size                 : 213 MiB (5%)
Title                       : Latino
Language                    : Spanish
Service kind                : Complete Main
Default                     : Yes
Forced                      : No

Audio #2
ID                          : 3
Format                      : AC-3
Format/Info                 : Audio Coding 3
Format settings, Endianness : Big
Codec ID                    : A_AC3
Duration                    : 1 h 17 min
Bit rate mode               : Constant
Bit rate                    : 384 kb/s
Channel(s)                  : 6 channels
Channel positions           : Front: L C R, Side: L R, LFE
Sampling rate               : 48.0 kHz
Frame rate                  : 31.250 FPS (1536 SPF)
Bit depth                   : 16 bits
Compression mode            : Lossy
Stream size                 : 213 MiB (5%)
Title                       : Ingles
Language                    : English
Service kind                : Complete Main
Default                     : No
Forced                      : No

Text #1
ID                          : 4
Format                      : UTF-8
Codec ID                    : S_TEXT/UTF8
Codec ID/Info               : UTF-8 Plain Text
Duration                    : 16 min 42 s
Bit rate                    : 1 b/s
Count of elements           : 5
Stream size                 : 126 Bytes (0%)
Title                       : Forzados
Language                    : Spanish
Default                     : Yes
Forced                      : Yes

Text #2
ID                          : 5
Format                      : UTF-8
Codec ID                    : S_TEXT/UTF8
Codec ID/Info               : UTF-8 Plain Text
Duration                    : 1 h 13 min
Bit rate                    : 39 b/s
Count of elements           : 668
Stream size                 : 21.4 KiB (0%)
Title                       : Completos
Language                    : Spanish
Default                     : No
Forced                      : No

Text #3
ID                          : 6
Format                      : UTF-8
Codec ID                    : S_TEXT/UTF8
Codec ID/Info               : UTF-8 Plain Text
Duration                    : 1 h 14 min
Bit rate                    : 47 b/s
Count of elements           : 1025
Stream size                 : 25.7 KiB (0%)
Title                       : Ingles
Language                    : English
Default                     : No
Forced                      : No

Menu
00:00:00.000                : en:00:00:00.000
00:10:46.396                : en:00:10:46.396
00:21:41.091                : en:00:21:41.091
00:31:03.862                : en:00:31:03.862
00:42:55.323                : en:00:42:55.323
00:54:12.791                : en:00:54:12.791
01:03:17.836                : en:01:03:17.836
01:14:21.457                : en:01:14:21.457


BitRate : 7 338 kb/s
Audio Latino : AC3 5.1
Audio Inglés : AC3 5.1

* Chrome esta marcando los .torrent como archivos peligrosos,
Descarguenlos con confianza, son los mismos torrent de siempre.



Calidad Versión Atributo Tamaño link
WEBDL 1080p 3.2 GB justice-league-vs-the-fatal-five-1080p-2019-webdl-lat.html
WEBDL 720p 2.62 GB justice-league-vs-the-fatal-five-720p-2019-webdl-lat.html