5.2/10
97
5.1/10
32

Alt-torrent Películas con audio latino para ver y compartir

Dale sabor a tu vida amorosa con nuevas posiciones. La diversión sexual es la base de toda relación sexual. No importa si usted sueña con un juego sensual, mucho amor en la noche, o de sexo ardiente, enérgico en la mañana en el ?Kamasutra 3D? usted encontrará todas las posiciones que satisfagan sus deseos y estados de ánimo. Rodada en 3D estereoscópico, usted aprenderá a despertar y satisfacer todos tus sentidos. Dale sabor a tu vida amorosa con nuevas experiencias sexuales y descubre los secretos eróticos del oriente antiguo.

Título original:
Kamasutra 3D
Año:
2012
Duración:
47 min
País:
Germany
Director:
Amir Assadi
Escritor:
N/A
Reparto:
N/A
Productora:
Género:
Romance,Documental
General
Unique ID                                : 263051463142273071336192254736256033975 (0xC5E5DE7558939F0A6069869F8F8D64B7)
Complete name                            : /home/zeiz/files/Kamasutra 3D (2012) 1080p LAT - CharlX/Kamasutra 3D (2012) 1080p LAT - CharlX.mkv
Format                                   : Matroska
Format version                           : Version 4
File size                                : 1.00 GiB
Duration                                 : 47 min 11 s
Overall bit rate                         : 3 045 kb/s
Movie name                               : Kamasutra 3D (2012) 1080p LAT - CharlX
Encoded date                             : UTC 2019-01-22 20:39:31
Writing application                      : mkvmerge v9.9.0 ('Pick Up') 64bit
Writing library                          : libebml v1.3.4 + libmatroska v1.4.5
Attachments                              : Kamasutra 3D (2012) 1080p LAT - CharlX.jpg
Uploader                                 : CharlX
Web                                      : www.alt-torrent.com

Video
ID                                       : 1
Format                                   : AVC
Format/Info                              : Advanced Video Codec
Format profile                           : [email protected]
Format settings                          : CABAC / 2 Ref Frames
Format settings, CABAC                   : Yes
Format settings, ReFrames                : 2 frames
Codec ID                                 : V_MPEG4/ISO/AVC
Duration                                 : 47 min 11 s
Bit rate                                 : 2 500 kb/s
Width                                    : 1 920 pixels
Height                                   : 1 080 pixels
Display aspect ratio                     : 16:9
Frame rate mode                          : Constant
Frame rate                               : 23.976 (24000/1001) FPS
Color space                              : YUV
Chroma subsampling                       : 4:2:0
Bit depth                                : 8 bits
Scan type                                : Progressive
Bits/(Pixel*Frame)                       : 0.050
Stream size                              : 853 MiB (83%)
Title                                    : Kamasutra 3D (2012) 1080p LAT - CharlX
Writing library                          : x264 core 142
Encoding settings                        : cabac=1 / ref=1 / deblock=1:-1:-1 / analyse=0x3:0 / me=hex / subme=5 / psy=0 / mixed_ref=0 / me_range=16 / chroma_me=1 / trellis=0 / 8x8dct=1 / cqm=0 / deadzone=21,11 / fast_pskip=0 / chroma_qp_offset=0 / threads=32 / lookahead_threads=8 / sliced_threads=0 / nr=0 / decimate=1 / interlaced=0 / bluray_compat=0 / constrained_intra=0 / bframes=2 / b_pyramid=0 / b_adapt=1 / b_bias=0 / direct=1 / weightb=0 / open_gop=0 / weightp=0 / keyint=24 / keyint_min=13 / scenecut=40 / intra_refresh=0 / rc=abr / mbtree=0 / bitrate=2500 / ratetol=1.0 / qcomp=0.60 / qpmin=0 / qpmax=69 / qpstep=4 / ip_ratio=1.40 / pb_ratio=1.30 / aq=1:1.00
Language                                 : English
Default                                  : Yes
Forced                                   : No
Color range                              : Limited
Color primaries                          : BT.709
Transfer characteristics                 : BT.709
Matrix coefficients                      : BT.709

Audio #1
ID                                       : 2
Format                                   : AC-3
Format/Info                              : Audio Coding 3
Commercial name                          : Dolby Digital
Codec ID                                 : A_AC3
Duration                                 : 47 min 11 s
Bit rate mode                            : Constant
Bit rate                                 : 256 kb/s
Channel(s)                               : 2 channels
Channel layout                           : L R
Sampling rate                            : 48.0 kHz
Frame rate                               : 31.250 FPS (1536 SPF)
Bit depth                                : 16 bits
Compression mode                         : Lossy
Stream size                              : 86.4 MiB (8%)
Title                                    : Latino
Language                                 : Latin
Service kind                             : Complete Main
Default                                  : Yes
Forced                                   : No

Audio #2
ID                                       : 3
Format                                   : AC-3
Format/Info                              : Audio Coding 3
Commercial name                          : Dolby Digital
Codec ID                                 : A_AC3
Duration                                 : 47 min 11 s
Bit rate mode                            : Constant
Bit rate                                 : 256 kb/s
Channel(s)                               : 2 channels
Channel layout                           : L R
Sampling rate                            : 48.0 kHz
Frame rate                               : 31.250 FPS (1536 SPF)
Bit depth                                : 16 bits
Compression mode                         : Lossy
Stream size                              : 86.4 MiB (8%)
Title                                    : Inglés
Language                                 : English
Service kind                             : Complete Main
Default                                  : No
Forced                                   : No

Text #1
ID                                       : 4
Format                                   : UTF-8
Codec ID                                 : S_TEXT/UTF8
Codec ID/Info                            : UTF-8 Plain Text
Duration                                 : 5 s 0 ms
Bit rate                                 : 48 b/s
Count of elements                        : 1
Stream size                              : 30.0 Bytes (0%)
Title                                    : www.alt-torrent.com
Language                                 : Latin
Default                                  : Yes
Forced                                   : Yes

Text #2
ID                                       : 5
Format                                   : PGS
Muxing mode                              : zlib
Codec ID                                 : S_HDMV/PGS
Codec ID/Info                            : Picture based subtitle format used on BDs/HD-DVDs
Duration                                 : 43 min 15 s
Bit rate                                 : 1 519 b/s
Count of elements                        : 40
Stream size                              : 481 KiB (0%)
Title                                    : Latino
Language                                 : Latin
Default                                  : No
Forced                                   : No

Text #3
ID                                       : 6
Format                                   : PGS
Muxing mode                              : zlib
Codec ID                                 : S_HDMV/PGS
Codec ID/Info                            : Picture based subtitle format used on BDs/HD-DVDs
Duration                                 : 43 min 15 s
Bit rate                                 : 2 008 b/s
Count of elements                        : 44
Stream size                              : 636 KiB (0%)
Title                                    : Inglés
Language                                 : English
Default                                  : No
Forced                                   : No

Menu
00:00:00.000                             : en:(01)00:00:00:000
00:03:59.697                             : en:(02)00:03:59:697
00:14:34.331                             : en:(03)00:14:34:331
00:21:34.418                             : en:(04)00:21:34:418
00:32:10.720                             : en:(05)00:32:10:720
00:40:17.456                             : en:(06)00:40:17:456
00:47:11.161                             : en:(07)00:47:11:161

BitRate : 3 045 kb/s
Audio Latino : AC3 2.0
Audio Inglés : AC3 2.0

* Chrome esta marcando los .torrent como archivos peligrosos,
Descarguenlos con confianza, son los mismos torrent de siempre.