3.3/10
57
5.7/10
3

Alt-torrent Películas con audio latino para ver y compartir

Carla es una exitosa abogada que desde hace tres años está divorciada. Tras la pérdida de su celular, Carla recibe la llamada de alguien que lo encontró con intenciones de devolvérselo. Es León, un hombre encantador y carismático. Ambos tienen una conexión instantánea y concretan una cita para que León pueda devolverle el celular. Cuando León llega a encontrarse con Carla, ella queda totalmente sorprendida: León es todo lo que había imaginado, excepto por un detalle inesperado, él mide 1:35 m de altura.

Título original:
Mi pequeño gran hombre
Año:
2018
Duración:
94 min
País:
Mexico
Director:
Jorge Ramírez Suárez
Escritor:
Marcos Carnevale (created by), Marcos Carnevale (screenplay), Jorge Ramírez Suárez (adaptation), Jorge Ramírez Suárez
Reparto:
Fernanda Castillo, Jorge Salinas, Vico Escorcia, Silvia Pasquel
Productora:
Videocine
Género:
Comedia
Format                                   : Matroska
Format version                           : Version 4
File size                                : 2.72 GiB
Duration                                 : 1 h 38 min
Overall bit rate                         : 3 944 kb/s
Movie name                               : www.alt-torrent.com
Encoded date                             : UTC 2019-03-20 19:22:16
Writing application                      : mkvmerge v27.0.0 ('Metropolis') 64-bit
Writing library                          : libebml v1.3.6 + libmatroska v1.4.9

Video
ID                                       : 1
Format                                   : AVC
Format/Info                              : Advanced Video Codec
Format profile                           : [email protected]
Format settings                          : CABAC / 5 Ref Frames
Format settings, CABAC                   : Yes
Format settings, ReFrames                : 5 frames
Codec ID                                 : V_MPEG4/ISO/AVC
Duration                                 : 1 h 38 min
Bit rate                                 : 3 500 kb/s
Width                                    : 1 920 pixels
Height                                   : 856 pixels
Display aspect ratio                     : 2.25:1
Frame rate mode                          : Constant
Frame rate                               : 23.976 (24000/1001) FPS
Color space                              : YUV
Chroma subsampling                       : 4:2:0
Bit depth                                : 8 bits
Scan type                                : Progressive
Bits/(Pixel*Frame)                       : 0.089
Stream size                              : 2.41 GiB (89%)
Title                                    : www.alt-torrent.com
Writing library                          : x264 core 157 r2935 545de2f
Encoding settings                        : cabac=1 / ref=5 / deblock=1:0:0 / analyse=0x3:0x113 / me=hex / subme=8 / psy=1 / psy_rd=1.00:0.00 / mixed_ref=1 / me_range=16 / chroma_me=1 / trellis=2 / 8x8dct=1 / cqm=0 / deadzone=21,11 / fast_pskip=1 / chroma_qp_offset=-2 / threads=27 / lookahead_threads=4 / sliced_threads=0 / nr=0 / decimate=1 / interlaced=0 / bluray_compat=0 / constrained_intra=0 / bframes=3 / b_pyramid=2 / b_adapt=1 / b_bias=0 / direct=3 / weightb=1 / open_gop=0 / weightp=2 / keyint=240 / keyint_min=24 / scenecut=40 / intra_refresh=0 / rc_lookahead=50 / rc=abr / mbtree=1 / bitrate=3500 / ratetol=1.0 / qcomp=0.60 / qpmin=0 / qpmax=69 / qpstep=4 / vbv_maxrate=62500 / vbv_bufsize=78125 / nal_hrd=none / filler=0 / ip_ratio=1.40 / aq=1:1.00
Default                                  : Yes
Forced                                   : No
Color range                              : Limited
Color primaries                          : BT.709
Transfer characteristics                 : BT.709
Matrix coefficients                      : BT.709

Audio
ID                                       : 2
Format                                   : AC-3
Format/Info                              : Audio Coding 3
Commercial name                          : Dolby Digital
Codec ID                                 : A_AC3
Duration                                 : 1 h 38 min
Bit rate mode                            : Constant
Bit rate                                 : 448 kb/s
Channel(s)                               : 6 channels
Channel layout                           : L R C LFE Ls Rs
Sampling rate                            : 48.0 kHz
Frame rate                               : 31.250 FPS (1536 SPF)
Bit depth                                : 16 bits
Compression mode                         : Lossy
Delay relative to video                  : -5 ms
Stream size                              : 316 MiB (11%)
Title                                    : www.alt-torrent.com
Language                                 : Spanish
Service kind                             : Complete Main
Default                                  : Yes
Forced                                   : No

BitRate : 3 944 kb/s
Audio Latino : AC3 5.1

* Chrome esta marcando los .torrent como archivos peligrosos,
Descarguenlos con confianza, son los mismos torrent de siempre.



Calidad Versión Atributo Tamaño link
BR-RIP 720p 2.03 GB mi-pequeo-gran-hombre-720p-2018-br-rip-lat.html