7.0/10
3.354
10.0/10
2

Alt-torrent Películas para ver y compartir

Lionel Frost, investigador dedicado a mitos y monstruos, descubre a una extraña y amable criatura, la última en su especie, a la que llama Mr. Link. Junto a Frost, Mr. Link se embarcará en un apasionante y divertido viaje dispuesto a encontrar a sus primos los Yeti, desaparecidos tiempo atrás. Contarán con la ayuda de Adelina Fortnight, una aguerrida aventurera que tiene el único mapa conocido con la ubicación de los Yeti. Juntos afrontarán toda serie de peligros para llegar a su destino.

Título original:
Missing Link
Año:
2019
Duración:
94 min
País:
Canada, USA
Director:
Chris Butler
Escritor:
Chris Butler
Reparto:
Hugh Jackman, David Walliams, Stephen Fry, Matt Lucas
Productora:
Laika Entertainment,Annapurna Pictures
Género:
Animación,Comedia,Aventura,Fantasía,Familia
Format                                   : Matroska
Format version                           : Version 4
File size                                : 3.23 GiB
Duration                                 : 1 h 34 min
Overall bit rate                         : 4 890 kb/s
Movie name                               : www.alt-torrent.com
Encoded date                             : UTC 2019-07-10 20:39:52
Writing application                      : mkvmerge v27.0.0 ('Metropolis') 64-bit
Writing library                          : libebml v1.3.6 + libmatroska v1.4.9

Video
ID                                       : 1
Format                                   : AVC
Format/Info                              : Advanced Video Codec
Format profile                           : [email protected]
Format settings                          : CABAC / 5 Ref Frames
Format settings, CABAC                   : Yes
Format settings, ReFrames                : 5 frames
Codec ID                                 : V_MPEG4/ISO/AVC
Duration                                 : 1 h 34 min
Bit rate                                 : 4 504 kb/s
Width                                    : 1 920 pixels
Height                                   : 802 pixels
Display aspect ratio                     : 2.40:1
Frame rate mode                          : Constant
Frame rate                               : 23.976 FPS
Color space                              : YUV
Chroma subsampling                       : 4:2:0
Bit depth                                : 8 bits
Scan type                                : Progressive
Bits/(Pixel*Frame)                       : 0.122
Stream size                              : 2.97 GiB (92%)
Title                                    : www.alt-torrent.com
Language                                 : English
Default                                  : Yes
Forced                                   : No
Color range                              : Limited
Color primaries                          : BT.709
Transfer characteristics                 : BT.709
Matrix coefficients                      : BT.709

Audio
ID                                       : 2
Format                                   : AC-3
Format/Info                              : Audio Coding 3
Commercial name                          : Dolby Digital
Codec ID                                 : A_AC3
Duration                                 : 1 h 34 min
Bit rate mode                            : Constant
Bit rate                                 : 384 kb/s
Channel(s)                               : 6 channels
Channel layout                           : L R C LFE Ls Rs
Sampling rate                            : 48.0 kHz
Frame rate                               : 31.250 FPS (1536 SPF)
Bit depth                                : 16 bits
Compression mode                         : Lossy
Stream size                              : 259 MiB (8%)
Title                                    : www.alt-torrent.com
Language                                 : English
Service kind                             : Complete Main
Default                                  : Yes
Forced                                   : No

Text
ID                                       : 3
Format                                   : UTF-8
Codec ID                                 : S_TEXT/UTF8
Codec ID/Info                            : UTF-8 Plain Text
Duration                                 : 1 h 33 min
Bit rate                                 : 51 b/s
Count of elements                        : 1166
Stream size                              : 35.2 KiB (0%)
Title                                    : www.alt-torrent.com
Language                                 : Spanish
Default                                  : Yes
Forced                                   : No

BitRate : 4 890 kb/s
Audio Inglés : AC3 5.1

* Chrome esta marcando los .torrent como archivos peligrosos,
Descarguenlos con confianza, son los mismos torrent de siempre.

 AUDIO INGLES FINAL AC3 5.1
+ SUBTITULO SRT LATINO