3.8/10
474
6.5/10
12

Alt-torrent Películas con audio latino para ver y compartir

Zequi (Omar Chaparro) y Lucy (Martha Higareda) están por casarse. Todo parece marchar color de rosa y están a un día de la boda cuando llega la despedida de soltero. A pesar de que él promete portarse bien y no excederse, las cosas se salen de control.

Título original:
No Manches Frida 2
Año:
2019
Duración:
102 min
País:
USA
Director:
Nacho G. Velilla
Escritor:
Claudio Herrera, David S. Olivas, Sergio 'Venado' Sanchez
Reparto:
Martha Higareda, Omar Chaparro, Itatí Cantoral, Aarón Díaz
Productora:
Género:
Comedia
No manches Frida 2 (2019) WEBDL 1080p LAT

Format                      : Matroska
Format version              : Version 4 / Version 2
File size                   : 3.51 GiB
Duration                    : 1 h 42 min
Overall bit rate            : 4 898 kb/s
Movie name                  : www.alt-torrent.com - FllorTV
Encoded date                : UTC 2019-06-30 04:09:02
Writing application         : mkvmerge v31.0.0 ('Dolores In A Shoestand') 64-bit
Writing library             : libebml v1.3.6 + libmatroska v1.4.9

Video
ID                          : 1
Format                      : AVC
Format/Info                 : Advanced Video Codec
Format profile              : [email protected]
Format settings             : CABAC / 5 Ref Frames
Format settings, CABAC      : Yes
Format settings, RefFrames  : 5 frames
Codec ID                    : V_MPEG4/ISO/AVC
Duration                    : 1 h 42 min
Bit rate                    : 4 512 kb/s
Width                       : 1 908 pixels
Height                      : 788 pixels
Display aspect ratio        : 2.40:1
Frame rate mode             : Constant
Frame rate                  : 23.976 (24000/1001) FPS
Color space                 : YUV
Chroma subsampling          : 4:2:0
Bit depth                   : 8 bits
Scan type                   : Progressive
Bits/(Pixel*Frame)          : 0.125
Stream size                 : 3.24 GiB (92%)
Title                       : www.alt-torrent.com - FllorTV
Language                    : English
Default                     : Yes
Forced                      : No
Color range                 : Limited
Color primaries             : BT.709
Transfer characteristics    : BT.709
Matrix coefficients         : BT.709

Audio
ID                          : 2
Format                      : AC-3
Format/Info                 : Audio Coding 3
Format settings, Endianness : Big
Codec ID                    : A_AC3
Duration                    : 1 h 42 min
Bit rate mode               : Constant
Bit rate                    : 384 kb/s
Channel(s)                  : 6 channels
Channel positions           : Front: L C R, Side: L R, LFE
Sampling rate               : 48.0 kHz
Frame rate                  : 31.250 FPS (1536 SPF)
Bit depth                   : 16 bits
Compression mode            : Lossy
Stream size                 : 282 MiB (8%)
Title                       : Latino
Language                    : Spanish
Service kind                : Complete Main
Default                     : Yes
Forced                      : No

Text #1
ID                          : 3
Format                      : UTF-8
Codec ID                    : S_TEXT/UTF8
Codec ID/Info               : UTF-8 Plain Text
Duration                    : 5 s 0 ms
Bit rate                    : 49 b/s
Count of elements           : 1
Stream size                 : 31.0 Bytes (0%)
Title                       : Forzados
Language                    : Spanish
Default                     : Yes
Forced                      : Yes

Text #2
ID                          : 4
Format                      : UTF-8
Codec ID                    : S_TEXT/UTF8
Codec ID/Info               : UTF-8 Plain Text
Duration                    : 5 s 0 ms
Bit rate                    : 49 b/s
Count of elements           : 1
Stream size                 : 31.0 Bytes (0%)
Title                       : Forzados
Language                    : Spanish
Default                     : No
Forced                      : Yes


BitRate : 4 898 kb/s
Audio Latino : AC3 5.1

* Chrome esta marcando los .torrent como archivos peligrosos,
Descarguenlos con confianza, son los mismos torrent de siempre.