7.1/10
18.465
9.0/10
3

Alt-torrent Películas con audio latino para ver y compartir

La víspera del Día D, un grupo de soldados aliados es enviado a la Francia ocupada para completar una misión esencial para la victoria. Sobre el terreno, descubren un laboratorio en el que se llevan a cabo descabellados experimentos. La formación que han recibido no les ha preparado para enfrentarse a soldados manipulados genéticamente. Overlord se suma a la insigne lista de producciones de Bad Robot, la revolucionaria compañía de J. J. Abrams.

Título original:
Overlord
Año:
2018
Duración:
110 min
País:
USA, Canada
Director:
Julius Avery
Escritor:
Billy Ray (screenplay by), Mark L. Smith (screenplay by), Billy Ray (story by)
Reparto:
Jovan Adepo, Wyatt Russell, Mathilde Ollivier, Pilou Asbæk
Productora:
Bad Robot,Paramount
Género:
Terror,Bélica,Acción,Ciencia ficción
Format                                   : Matroska
Format version                           : Version 4
File size                                : 3.37 GiB
Duration                                 : 1 h 49 min
Overall bit rate                         : 4 396 kb/s
Movie name                               : www.alt-torrent.com - By FllorTV
Encoded date                             : UTC 2019-02-10 01:37:46
Writing application                      : mkvmerge v27.0.0 ('Metropolis') 64-bit
Writing library                          : libebml v1.3.6 + libmatroska v1.4.9

Video
ID                                       : 1
Format                                   : AVC
Format/Info                              : Advanced Video Codec
Format profile                           : High@L4.1
Format settings                          : CABAC / 5 Ref Frames
Format settings, CABAC                   : Yes
Format settings, ReFrames                : 5 frames
Codec ID                                 : V_MPEG4/ISO/AVC
Duration                                 : 1 h 49 min
Bit rate                                 : 3 500 kb/s
Width                                    : 1 914 pixels
Height                                   : 800 pixels
Display aspect ratio                     : 2.40:1
Frame rate mode                          : Constant
Frame rate                               : 23.976 (24000/1001) FPS
Color space                              : YUV
Chroma subsampling                       : 4:2:0
Bit depth                                : 8 bits
Scan type                                : Progressive
Bits/(Pixel*Frame)                       : 0.095
Stream size                              : 2.68 GiB (80%)
Title                                    : www.alt-torrent.com
Writing library                          : x264 core 157 r2935 545de2f
Encoding settings                        : cabac=1 / ref=5 / deblock=1:0:0 / analyse=0x3:0x113 / me=hex / subme=8 / psy=1 / psy_rd=1.00:0.00 / mixed_ref=1 / me_range=16 / chroma_me=1 / trellis=2 / 8x8dct=1 / cqm=0 / deadzone=21,11 / fast_pskip=1 / chroma_qp_offset=-2 / threads=25 / lookahead_threads=4 / sliced_threads=0 / nr=0 / decimate=1 / interlaced=0 / bluray_compat=0 / constrained_intra=0 / bframes=3 / b_pyramid=2 / b_adapt=1 / b_bias=0 / direct=3 / weightb=1 / open_gop=0 / weightp=2 / keyint=240 / keyint_min=24 / scenecut=40 / intra_refresh=0 / rc_lookahead=50 / rc=2pass / mbtree=1 / bitrate=3500 / ratetol=1.0 / qcomp=0.60 / qpmin=0 / qpmax=69 / qpstep=4 / cplxblur=20.0 / qblur=0.5 / vbv_maxrate=62500 / vbv_bufsize=78125 / nal_hrd=none / filler=0 / ip_ratio=1.40 / aq=1:1.00
Default                                  : Yes
Forced                                   : No
Color range                              : Limited
Color primaries                          : BT.709
Transfer characteristics                 : BT.709
Matrix coefficients                      : BT.709

Audio #1
ID                                       : 2
Format                                   : AC-3
Format/Info                              : Audio Coding 3
Commercial name                          : Dolby Digital
Codec ID                                 : A_AC3
Duration                                 : 1 h 49 min
Bit rate mode                            : Constant
Bit rate                                 : 448 kb/s
Channel(s)                               : 6 channels
Channel layout                           : L R C LFE Ls Rs
Sampling rate                            : 48.0 kHz
Frame rate                               : 31.250 FPS (1536 SPF)
Bit depth                                : 16 bits
Compression mode                         : Lossy
Delay relative to video                  : 837 ms
Stream size                              : 352 MiB (10%)
Title                                    : latino
Language                                 : Spanish
Service kind                             : Complete Main
Default                                  : Yes
Forced                                   : No

Audio #2
ID                                       : 3
Format                                   : AC-3
Format/Info                              : Audio Coding 3
Commercial name                          : Dolby Digital
Codec ID                                 : A_AC3
Duration                                 : 1 h 49 min
Bit rate mode                            : Constant
Bit rate                                 : 448 kb/s
Channel(s)                               : 6 channels
Channel layout                           : L R C LFE Ls Rs
Sampling rate                            : 48.0 kHz
Frame rate                               : 31.250 FPS (1536 SPF)
Bit depth                                : 16 bits
Compression mode                         : Lossy
Delay relative to video                  : -5 ms
Stream size                              : 352 MiB (10%)
Title                                    : ingles
Language                                 : English
Service kind                             : Complete Main
Default                                  : No
Forced                                   : No

Text #1
ID                                       : 4
Format                                   : UTF-8
Codec ID                                 : S_TEXT/UTF8
Codec ID/Info                            : UTF-8 Plain Text
Duration                                 : 1 h 27 min
Bit rate                                 : 5 b/s
Count of elements                        : 124
Stream size                              : 3.82 KiB (0%)
Title                                    : forzados
Language                                 : Spanish
Default                                  : Yes
Forced                                   : No

Text #2
ID                                       : 5
Format                                   : UTF-8
Codec ID                                 : S_TEXT/UTF8
Codec ID/Info                            : UTF-8 Plain Text
Duration                                 : 1 h 42 min
Bit rate                                 : 37 b/s
Count of elements                        : 887
Stream size                              : 27.7 KiB (0%)
Title                                    : completos
Language                                 : Spanish
Default                                  : No
Forced                                   : No

BitRate : 4 396 kb/s
Audio Latino : AC3 5.1
Audio Inglés : AC3 5.1

 Ambos Audios Son Finales
+ subtitulo SRT latino


Calidad Versión Atributo Tamaño link
FullHD 1080p 5.61 GB overlord-1080p-2018-fullhd-lat.html
WEBDL 1080p 4.02 GB overlord-1080p-2018-webdl-lat.html
WEBDL 720p 2.42 GB overlord-720p-2018-webdl-lat.html

Para habilitar los comentarios debes estar de acuerdo con las siguientes reglas:

  • Usar lenguaje apropiado evitando las faltas de respeto.
  • No incluir links a otras páginas de descarga
  • Evitar preguntas como "Cuando suben la película" o "Cuando sale en Latino",apenas estén disponibles las subiremos.
  • Los comentarios están habilitados, solo para pedir ayuda, informar algún problema con la película o comentar sobre la misma. Cualquier otro tipo de comentario puede ser borrado
  • No hacer reclamos o comentarios respecto a la publicidad, el acceso es gratis y esa es nuestra única forma de financiar los costos de la página. Y como dice el dicho: "a caballo regalado no se le miran los dientes".
  • Si necesitas ayuda, hacerlo en www.alt-torrent.com/ayuda.html
No cumplir con esto puede ser motivo de eliminación del comentario, bloqueo de los comentarios o bloqueo en ALT, dependiendo de la falta a estas reglas.