6.7/10
58.281
7.3/10
11

Alt-torrent Películas con audio latino para ver y compartir

La víspera del Día D, un grupo de soldados aliados es enviado a la Francia ocupada para completar una misión esencial para la victoria. Sobre el terreno, descubren un laboratorio en el que se llevan a cabo descabellados experimentos. La formación que han recibido no les ha preparado para enfrentarse a soldados manipulados genéticamente. Overlord se suma a la insigne lista de producciones de Bad Robot, la revolucionaria compañía de J. J. Abrams.

Título original:
Overlord
Año:
2018
Duración:
110 min
País:
USA, Canada
Director:
Julius Avery
Escritor:
Billy Ray (screenplay by), Mark L. Smith (screenplay by), Billy Ray (story by)
Reparto:
Jovan Adepo, Wyatt Russell, Mathilde Ollivier, Pilou Asbæk
Productora:
Bad Robot,Paramount
Género:
Acción,Terror,Ciencia ficción,Suspense,Bélica,Aventura,Misterio
Format                                   : Matroska
Format version                           : Version 4
File size                                : 4.01 GiB
Duration                                 : 1 h 50 min
Overall bit rate                         : 5 207 kb/s
Movie name                               : www.alt-torrent.com - By FllorTV
Encoded date                             : UTC 2019-02-05 00:56:04
Writing application                      : mkvmerge v27.0.0 ('Metropolis') 64-bit
Writing library                          : libebml v1.3.6 + libmatroska v1.4.9

Video
ID                                       : 1
Format                                   : AVC
Format/Info                              : Advanced Video Codec
Format profile                           : [email protected]
Format settings                          : CABAC / 5 Ref Frames
Format settings, CABAC                   : Yes
Format settings, ReFrames                : 5 frames
Codec ID                                 : V_MPEG4/ISO/AVC
Duration                                 : 1 h 50 min
Bit rate                                 : 4 568 kb/s
Width                                    : 1 912 pixels
Height                                   : 792 pixels
Display aspect ratio                     : 2.40:1
Frame rate mode                          : Constant
Frame rate                               : 23.976 FPS
Color space                              : YUV
Chroma subsampling                       : 4:2:0
Bit depth                                : 8 bits
Scan type                                : Progressive
Bits/(Pixel*Frame)                       : 0.126
Stream size                              : 3.52 GiB (88%)
Title                                    : www.alt-torrent.com
Language                                 : English
Default                                  : No
Forced                                   : No
Color range                              : Limited
Color primaries                          : BT.709
Transfer characteristics                 : BT.709
Matrix coefficients                      : BT.709

Audio #1
ID                                       : 2
Format                                   : AC-3
Format/Info                              : Audio Coding 3
Commercial name                          : Dolby Digital
Codec ID                                 : A_AC3
Duration                                 : 1 h 49 min
Bit rate mode                            : Constant
Bit rate                                 : 256 kb/s
Channel(s)                               : 2 channels
Channel layout                           : L R
Sampling rate                            : 48.0 kHz
Frame rate                               : 31.250 FPS (1536 SPF)
Bit depth                                : 16 bits
Compression mode                         : Lossy
Stream size                              : 201 MiB (5%)
Title                                    : latino
Language                                 : Spanish
Service kind                             : Complete Main
Default                                  : Yes
Forced                                   : No

Audio #2
ID                                       : 3
Format                                   : AC-3
Format/Info                              : Audio Coding 3
Commercial name                          : Dolby Digital
Codec ID                                 : A_AC3
Duration                                 : 1 h 49 min
Bit rate mode                            : Constant
Bit rate                                 : 384 kb/s
Channel(s)                               : 6 channels
Channel layout                           : L R C LFE Ls Rs
Sampling rate                            : 48.0 kHz
Frame rate                               : 31.250 FPS (1536 SPF)
Bit depth                                : 16 bits
Compression mode                         : Lossy
Stream size                              : 301 MiB (7%)
Title                                    : ingles
Language                                 : English
Service kind                             : Complete Main
Default                                  : No
Forced                                   : No

Text #1
ID                                       : 4
Format                                   : UTF-8
Codec ID                                 : S_TEXT/UTF8
Codec ID/Info                            : UTF-8 Plain Text
Duration                                 : 1 h 44 min
Bit rate                                 : 41 b/s
Count of elements                        : 1047
Stream size                              : 32.0 KiB (0%)
Title                                    : completos
Language                                 : Spanish
Default                                  : No
Forced                                   : No

Text #2
ID                                       : 5
Format                                   : UTF-8
Codec ID                                 : S_TEXT/UTF8
Codec ID/Info                            : UTF-8 Plain Text
Duration                                 : 5 s 0 ms
Bit rate                                 : 49 b/s
Count of elements                        : 1
Stream size                              : 31.0 Bytes (0%)
Title                                    : forzados
Language                                 : Spanish
Default                                  : Yes
Forced                                   : No

BitRate : 5 207 kb/s
Audio Latino : AC3 2.0
Audio Inglés : AC3 2.0

* Chrome esta marcando los .torrent como archivos peligrosos,
Descarguenlos con confianza, son los mismos torrent de siempre.

 AMBOS AUDIOS FINALES
+ SUBTITULO SRT LATINO


Calidad Versión Atributo Tamaño link
BR-RIP 1080p 3.38 GB overlord-1080p-2018-br-rip-lat.html
FullHD 1080p 5.61 GB overlord-1080p-2018-fullhd-lat.html
WEBDL 720p 2.42 GB overlord-720p-2018-webdl-lat.html