5.7/10
2.787
8.8/10
12

Alt-torrent Películas con audio latino para ver y compartir

Mimma (Deborah Caprioglio) es una joven de campo, llena de encantos, que se prostituye durante una quincena para ayudar económicamente a su novio; un trabajo que le vale el sobrenombre de Paprika, dado por la madame, y al que su novio la empuja engañada. Enterada del engaño, Mimma intenta huir, pero él amenaza con devolverla a su pueblo con un informe.

Título original:
Paprika
Año:
1991
Duración:
99 min
País:
Italy
Director:
Tinto Brass
Escritor:
Tinto Brass, Bernardino Zapponi
Reparto:
Debora Caprioglio, Stéphane Ferrara, Martine Brochard, Stéphane Bonnet
Productora:
Scena Group
Género:
Drama
General
Unique ID                                : 136971856056583500492093354160299517359 (0x670BD1E5BCD1DFA7212F460A26A525AF)
Complete name                            : /home/zeiz/files/Summer Lovers (1982) BR-RIP 1080p LAT - CharlX/Summer Lovers (1982) BR-RIP 1080p LAT - CharlX.mkv
Format                                   : Matroska
Format version                           : Version 4
File size                                : 1.51 GiB
Duration                                 : 1 h 38 min
Overall bit rate                         : 2 192 kb/s
Movie name                               : Summer Lovers (1982) BR-RIP 1080p LAT - CharlX
Encoded date                             : UTC 2018-05-28 18:30:17
Writing application                      : mkvmerge v22.0.0 ('At The End Of The World') 64-bit
Writing library                          : libebml v1.3.5 + libmatroska v1.4.8
Cover                                    : Yes
Attachments                              : cover.jpg / cover.jpg / cover.jpg / cover.jpg
Uploader                                 : CharlX
Web                                      : www.alt-torrent.com

Video
ID                                       : 1
Format                                   : AVC
Format/Info                              : Advanced Video Codec
Format profile                           : [email protected]
Format settings                          : CABAC / 4 Ref Frames
Format settings, CABAC                   : Yes
Format settings, ReFrames                : 4 frames
Codec ID                                 : V_MPEG4/ISO/AVC
Duration                                 : 1 h 38 min
Bit rate                                 : 2 050 kb/s
Width                                    : 1 920 pixels
Height                                   : 1 040 pixels
Display aspect ratio                     : 1.85:1
Frame rate mode                          : Constant
Frame rate                               : 23.976 (24000/1001) FPS
Color space                              : YUV
Chroma subsampling                       : 4:2:0
Bit depth                                : 8 bits
Scan type                                : Progressive
Bits/(Pixel*Frame)                       : 0.043
Stream size                              : 1.42 GiB (94%)
Writing library                          : x264 core 148
Encoding settings                        : cabac=1 / ref=4 / deblock=1:-1:-1 / analyse=0x3:0x133 / me=umh / subme=9 / psy=1 / psy_rd=1.00:0.15 / mixed_ref=1 / me_range=24 / chroma_me=1 / trellis=2 / 8x8dct=1 / cqm=0 / deadzone=21,11 / fast_pskip=0 / chroma_qp_offset=-3 / threads=12 / lookahead_threads=1 / sliced_threads=0 / nr=0 / decimate=1 / interlaced=0 / bluray_compat=0 / constrained_intra=0 / bframes=3 / b_pyramid=2 / b_adapt=2 / b_bias=0 / direct=3 / weightb=1 / open_gop=0 / weightp=2 / keyint=250 / keyint_min=23 / scenecut=40 / intra_refresh=0 / rc_lookahead=60 / rc=2pass / mbtree=1 / bitrate=2050 / ratetol=1.0 / qcomp=0.60 / qpmin=0 / qpmax=69 / qpstep=4 / cplxblur=20.0 / qblur=0.5 / vbv_maxrate=31250 / vbv_bufsize=31250 / nal_hrd=none / filler=0 / ip_ratio=1.40 / aq=1:1.00
Language                                 : English
Default                                  : Yes
Forced                                   : No

Audio
ID                                       : 2
Format                                   : AAC LC
Format/Info                              : Advanced Audio Codec Low Complexity
Codec ID                                 : A_AAC-2
Duration                                 : 1 h 38 min
Bit rate                                 : 139 kb/s
Channel(s)                               : 2 channels
Channel layout                           : L R
Sampling rate                            : 48.0 kHz
Frame rate                               : 46.875 FPS (1024 SPF)
Compression mode                         : Lossy
Delay relative to video                  : -43 ms
Stream size                              : 98.1 MiB (6%)
Language                                 : English
Default                                  : Yes
Forced                                   : No

Text #1
ID                                       : 3
Format                                   : UTF-8
Codec ID                                 : S_TEXT/UTF8
Codec ID/Info                            : UTF-8 Plain Text
Duration                                 : 1 h 31 min
Bit rate                                 : 37 b/s
Count of elements                        : 902
Stream size                              : 25.5 KiB (0%)
Language                                 : Latin
Default                                  : Yes
Forced                                   : Yes

Text #2
ID                                       : 4
Format                                   : UTF-8
Codec ID                                 : S_TEXT/UTF8
Codec ID/Info                            : UTF-8 Plain Text
Duration                                 : 1 h 30 min
Bit rate                                 : 41 b/s
Count of elements                        : 940
Stream size                              : 27.7 KiB (0%)
Language                                 : English
Default                                  : No
Forced                                   : No

BitRate : 2 192 kb/s
Audio Latino : AC3 2.0
Audio Italiano : AC3 2.0

* Chrome esta marcando los .torrent como archivos peligrosos,
Descarguenlos con confianza, son los mismos torrent de siempre.

 AUDIO ITALIANO 2.0 + SUBS SRT