6.5/10
33.533
9.3/10
13

Alt-torrent Películas con audio latino para ver y compartir

LRiley North (Jennifer Garner) despierta de un coma y se entera de que su marido y su hija han sido brutalmente asesinados. Cuando años después el sistema que debe juzgar a los asesinos demuestra su fracaso, Riley decide tomarse la justicia por su mano.

Título original:
Peppermint
Año:
2018
Duración:
101 min
País:
Hong Kong, USA
Director:
Pierre Morel
Escritor:
Chad St. John
Reparto:
Jennifer Garner, John Gallagher Jr., John Ortiz, Juan Pablo Raba
Productora:
STX Entertainment,Lakeshore Entertainment,Huayi Brothers
Género:
Acción,Suspense,Drama
Peppermint (2018) FullHD LAT - FllorTV

Format                      : Matroska
Format version              : Version 4 / Version 2
File size                   : 4.11 GiB
Duration                    : 1 h 42 min
Overall bit rate            : 5 767 kb/s
Movie name                  : www.alt-torrent.com - / By FllorTV
Encoded date                : UTC 2019-01-04 12:05:15
Writing application         : mkvmerge v28.2.0 ('The Awakening') 64-bit
Writing library             : libebml v1.3.6 + libmatroska v1.4.9

Video
ID                          : 1
Format                      : AVC
Format/Info                 : Advanced Video Codec
Format profile              : [email protected]
Format settings             : CABAC / 4 Ref Frames
Format settings, CABAC      : Yes
Format settings, ReFrames   : 4 frames
Codec ID                    : V_MPEG4/ISO/AVC
Duration                    : 1 h 42 min
Bit rate                    : 5 000 kb/s
Width                       : 1 920 pixels
Height                      : 1 080 pixels
Display aspect ratio        : 2.40:1
Frame rate mode             : Constant
Frame rate                  : 23.976 (24000/1001) FPS
Color space                 : YUV
Chroma subsampling          : 4:2:0
Bit depth                   : 8 bits
Scan type                   : Progressive
Bits/(Pixel*Frame)          : 0.101
Stream size                 : 3.56 GiB (87%)
Title                       : www.alt-torrent.com - / By FllorTV
Writing library             : x264 core 155 r2893 b00bcaf
Encoding settings           : cabac=1 / ref=3 / deblock=1:0:0 / analyse=0x3:0x113 / me=hex / subme=7 / psy=1 / psy_rd=1.00:0.00 / mixed_ref=1 / me_range=16 / chroma_me=1 / trellis=1 / 8x8dct=1 / cqm=0 / deadzone=21,11 / fast_pskip=1 / chroma_qp_offset=-2 / threads=12 / lookahead_threads=2 / sliced_threads=0 / nr=0 / decimate=1 / interlaced=0 / bluray_compat=0 / constrained_intra=0 / bframes=3 / b_pyramid=2 / b_adapt=1 / b_bias=0 / direct=1 / weightb=1 / open_gop=0 / weightp=2 / keyint=240 / keyint_min=24 / scenecut=40 / intra_refresh=0 / rc_lookahead=40 / rc=2pass / mbtree=1 / bitrate=5000 / ratetol=1.0 / qcomp=0.60 / qpmin=0 / qpmax=69 / qpstep=4 / cplxblur=20.0 / qblur=0.5 / vbv_maxrate=168750 / vbv_bufsize=168750 / nal_hrd=none / filler=0 / ip_ratio=1.40 / aq=1:1.00
Default                     : Yes
Forced                      : No
Color range                 : Limited
Color primaries             : BT.709
Transfer characteristics    : BT.709
Matrix coefficients         : BT.709

Audio #1
ID                          : 2
Format                      : AC-3
Format/Info                 : Audio Coding 3
Codec ID                    : A_AC3
Duration                    : 1 h 42 min
Bit rate mode               : Constant
Bit rate                    : 384 kb/s
Channel(s)                  : 6 channels
Channel positions           : Front: L C R, Side: L R, LFE
Sampling rate               : 44.1 kHz
Frame rate                  : 28.711 FPS (1536 SPF)
Bit depth                   : 16 bits
Compression mode            : Lossy
Stream size                 : 280 MiB (7%)
Title                       : Latino
Language                    : Spanish
Service kind                : Complete Main
Default                     : Yes
Forced                      : Yes

Audio #2
ID                          : 3
Format                      : AC-3
Format/Info                 : Audio Coding 3
Codec ID                    : A_AC3
Duration                    : 1 h 42 min
Bit rate mode               : Constant
Bit rate                    : 384 kb/s
Channel(s)                  : 6 channels
Channel positions           : Front: L C R, Side: L R, LFE
Sampling rate               : 48.0 kHz
Frame rate                  : 31.250 FPS (1536 SPF)
Bit depth                   : 16 bits
Compression mode            : Lossy
Stream size                 : 280 MiB (7%)
Title                       : Ingles
Language                    : English
Service kind                : Complete Main
Default                     : No
Forced                      : No

Text #1
ID                          : 4
Format                      : UTF-8
Codec ID                    : S_TEXT/UTF8
Codec ID/Info               : UTF-8 Plain Text
Duration                    : 1 h 35 min
Bit rate                    : 53 b/s
Count of elements           : 1124
Stream size                 : 37.9 KiB (0%)
Title                       : Completos
Language                    : Spanish
Default                     : No
Forced                      : Yes

Text #2
ID                          : 5
Format                      : UTF-8
Codec ID                    : S_TEXT/UTF8
Codec ID/Info               : UTF-8 Plain Text
Duration                    : 5 s 0 ms
Bit rate                    : 49 b/s
Count of elements           : 1
Stream size                 : 31.0 Bytes (0%)
Title                       : Forzados
Language                    : Spanish
Default                     : Yes
Forced                      : Yes

Menu
00:00:00.000                : :Chapter 01
00:05:49.474                : :Chapter 02
00:09:23.855                : :Chapter 03
00:14:09.599                : :Chapter 04
00:20:52.001                : :Chapter 05
00:26:34.593                : :Chapter 06
00:30:55.312                : :Chapter 07
00:35:11.693                : :Chapter 08
00:40:33.097                : :Chapter 09
00:45:56.796                : :Chapter 10
00:51:05.229                : :Chapter 11
00:56:15.872                : :Chapter 12
01:01:48.663                : :Chapter 13
01:05:45.108                : :Chapter 14
01:11:02.008                : :Chapter 15
01:16:12.401                : :Chapter 16
01:19:50.244                : :Chapter 17
01:25:28.832                : :Chapter 18
01:30:58.244                : :Chapter 19
01:35:04.574                : :Chapter 20


BitRate : 5 767 kb/s
Audio Latino : AC3 5.1
Audio Inglés : AC3 5.1

* Chrome esta marcando los .torrent como archivos peligrosos,
Descarguenlos con confianza, son los mismos torrent de siempre.



Calidad Versión Atributo Tamaño link
BR-RIP 1080p 2.64 GB peppermint-2018-1080p-eng.html
BR-RIP 1080p [H.265] 944.62 MB peppermint-h265-2018-1080p-eng.html
BR-RIP 1080p 2.91 GB peppermint-2018-1080p-lat.html