5.9/10
46.462
7.3/10
8

Alt-torrent Películas con audio latino para ver y compartir

El doctor Louis Creed (Clarke) se muda con su mujer Racher (Seimetz) y sus dos hijos pequeños de Boston a un pueblecito de Maine, cerca del nuevo hogar de la familia descubrirá una terreno misterioso escondido entre los árboles. Cuando la tragedia llega, Louis hablará con su nuevo vecino, Jud Crandall (Lithgow), desencadenando una peligrosa reacción en cadena que desatará un mal de horribles consecuencias.

Título original:
Pet Sematary
Año:
2019
Duración:
101 min
País:
USA
Director:
Kevin Kölsch, Dennis Widmyer
Escritor:
Stephen King (novel), Matt Greenberg (screen story by), Jeff Buhler (screenplay)
Reparto:
Jason Clarke, Amy Seimetz, John Lithgow, Jeté Laurence
Productora:
Di Bonaventura Pictures,Alphaville Films,Paramount,Room 101
Género:
Suspense,Misterio,Terror
Format                                   : Matroska
Format version                           : Version 4
File size                                : 3.39 GiB
Duration                                 : 1 h 39 min
Overall bit rate                         : 4 894 kb/s
Movie name                               : www.alt-torrent.com
Encoded date                             : UTC 2019-05-11 16:14:48
Writing application                      : mkvmerge v27.0.0 ('Metropolis') 64-bit
Writing library                          : libebml v1.3.6 + libmatroska v1.4.9

Video
ID                                       : 1
Format                                   : AVC
Format/Info                              : Advanced Video Codec
Format profile                           : [email protected]
Format settings                          : CABAC / 4 Ref Frames
Format settings, CABAC                   : Yes
Format settings, ReFrames                : 4 frames
Codec ID                                 : V_MPEG4/ISO/AVC
Duration                                 : 1 h 39 min
Bit rate                                 : 4 430 kb/s
Width                                    : 1 920 pixels
Height                                   : 800 pixels
Display aspect ratio                     : 2.40:1
Frame rate mode                          : Constant
Frame rate                               : 29.970 (30000/1001) FPS
Color space                              : YUV
Chroma subsampling                       : 4:2:0
Bit depth                                : 8 bits
Scan type                                : Progressive
Bits/(Pixel*Frame)                       : 0.096
Stream size                              : 3.03 GiB (89%)
Title                                    : www.alt-torrent.com
Writing library                          : x264 core 142 r2479 dd79a61
Encoding settings                        : cabac=1 / ref=1 / deblock=1:0:0 / analyse=0x3:0x3 / me=dia / subme=1 / psy=1 / psy_rd=1.00:0.00 / mixed_ref=0 / me_range=16 / chroma_me=1 / trellis=0 / 8x8dct=1 / cqm=0 / deadzone=21,11 / fast_pskip=1 / chroma_qp_offset=0 / threads=24 / lookahead_threads=4 / sliced_threads=0 / nr=0 / decimate=1 / interlaced=0 / bluray_compat=0 / constrained_intra=0 / bframes=3 / b_pyramid=2 / b_adapt=1 / b_bias=0 / direct=1 / weightb=1 / open_gop=0 / weightp=1 / keyint=300 / keyint_min=30 / scenecut=40 / intra_refresh=0 / rc_lookahead=0 / rc=abr / mbtree=0 / bitrate=4430 / ratetol=1.0 / qcomp=0.60 / qpmin=0 / qpmax=69 / qpstep=4 / vbv_maxrate=62500 / vbv_bufsize=78125 / nal_hrd=none / filler=0 / ip_ratio=1.40 / pb_ratio=1.30 / aq=1:1.00
Default                                  : Yes
Forced                                   : No
Color range                              : Limited
Color primaries                          : BT.709
Transfer characteristics                 : BT.709
Matrix coefficients                      : BT.709

Audio #1
ID                                       : 2
Format                                   : AC-3
Format/Info                              : Audio Coding 3
Commercial name                          : Dolby Digital
Codec ID                                 : A_AC3
Duration                                 : 1 h 39 min
Bit rate mode                            : Constant
Bit rate                                 : 256 kb/s
Channel(s)                               : 6 channels
Channel layout                           : L R C LFE Ls Rs
Sampling rate                            : 48.0 kHz
Frame rate                               : 31.250 FPS (1536 SPF)
Bit depth                                : 16 bits
Compression mode                         : Lossy
Stream size                              : 181 MiB (5%)
Title                                    : www.alt-torrent.com
Language                                 : Spanish
Service kind                             : Complete Main
Default                                  : Yes
Forced                                   : No

Audio #2
ID                                       : 3
Format                                   : AAC LC
Format/Info                              : Advanced Audio Codec Low Complexity
Codec ID                                 : A_AAC-2
Duration                                 : 1 h 39 min
Bit rate                                 : 256 kb/s
Channel(s)                               : 2 channels
Channel layout                           : L R
Sampling rate                            : 48.0 kHz
Frame rate                               : 46.875 FPS (1024 SPF)
Compression mode                         : Lossy
Delay relative to video                  : 87 ms
Stream size                              : 181 MiB (5%)
Title                                    : www.alt-torrent.com
Language                                 : English
Default                                  : No
Forced                                   : No

Text
ID                                       : 4
Format                                   : SSA
Codec ID                                 : S_TEXT/SSA
Codec ID/Info                            : Sub Station Alpha
Duration                                 : 1 h 35 min
Bit rate                                 : 77 b/s
Count of elements                        : 756
Compression mode                         : Lossless
Stream size                              : 53.9 KiB (0%)
Title                                    : www.alt-torrent.com
Language                                 : Spanish
Default                                  : Yes
Forced                                   : No

BitRate : 4 894 kb/s
Audio Latino : LINE 2.0
Audio Inglés : LINE 2.0
* LINE es audio grabado de cine. Si no te gusta esta calidad,
No reclames, espera a que salga un audio de mejor calidad

* Chrome esta marcando los .torrent como archivos peligrosos,
Descarguenlos con confianza, son los mismos torrent de siempre.

 AMBOS AUDIOS CAM (cine)
+ SUBTITULO SSA PARA TAPAR SUBS COREANOS


Calidad Versión Atributo Tamaño link
4K 2160p 16.54 GB pet-sematary-2160p-2019-4k-lat.html
BR-RIP 1080p 3.18 GB pet-sematary-1080p-2019-br-rip-lat.html
FullHD 1080p Placebo 3.31 GB pet-sematary-1080p-2019-fullhd-lat.html
HD-RIP 720p 2.09 GB pet-sematary-720p-2019-hd-rip-lat.html
WEBDL 1080p 3.42 GB pet-sematary-1080p-2019-webdl-lat.html
WEBDL 720p 1.95 GB pet-sematary-720p-2019-webdl-lat.html