5.2/10
42
4.3/10
3

Alt-torrent Películas con audio latino para ver y compartir

Un instituto crea un sistema el cual puede generar sueños lucidos colectivos para ayudar a sus pacientes a mejorar, pero que pasaría si esos sueños reflejan tus peores pesadillas.

Título original:
Рассвет
Año:
2019
Duración:
N/A
País:
Russia
Director:
Pavel Sidorov
Escritor:
Evgeny Kolyadintsev
Reparto:
Alexandra Drozdova, Aleksandr Molochnikov, Anna Slyu, Oksana Akinshina
Productora:
Género:
Terror,Suspense
Format                                   : Matroska
Format version                           : Version 4
File size                                : 3.57 GiB
Duration                                 : 1 h 37 min
Overall bit rate                         : 5 239 kb/s
Movie name                               : www.alt-torrent.com
Encoded date                             : UTC 2019-06-12 01:51:04
Writing application                      : mkvmerge v27.0.0 ('Metropolis') 64-bit
Writing library                          : libebml v1.3.6 + libmatroska v1.4.9

Video
ID                                       : 1
Format                                   : AVC
Format/Info                              : Advanced Video Codec
Format profile                           : [email protected]
Format settings                          : CABAC / 5 Ref Frames
Format settings, CABAC                   : Yes
Format settings, ReFrames                : 5 frames
Codec ID                                 : V_MPEG4/ISO/AVC
Duration                                 : 1 h 37 min
Bit rate                                 : 4 597 kb/s
Width                                    : 1 908 pixels
Height                                   : 792 pixels
Display aspect ratio                     : 2.40:1
Frame rate mode                          : Constant
Frame rate                               : 23.976 (24000/1001) FPS
Color space                              : YUV
Chroma subsampling                       : 4:2:0
Bit depth                                : 8 bits
Scan type                                : Progressive
Bits/(Pixel*Frame)                       : 0.127
Stream size                              : 3.14 GiB (88%)
Title                                    : www.alt-torrent.com
Language                                 : Russian
Default                                  : Yes
Forced                                   : No
Color range                              : Limited
Color primaries                          : BT.709
Transfer characteristics                 : BT.709
Matrix coefficients                      : BT.709

Audio #1
ID                                       : 2
Format                                   : AC-3
Format/Info                              : Audio Coding 3
Commercial name                          : Dolby Digital
Codec ID                                 : A_AC3
Duration                                 : 1 h 37 min
Bit rate mode                            : Constant
Bit rate                                 : 256 kb/s
Channel(s)                               : 2 channels
Channel layout                           : L R
Sampling rate                            : 48.0 kHz
Frame rate                               : 31.250 FPS (1536 SPF)
Bit depth                                : 16 bits
Compression mode                         : Lossy
Stream size                              : 179 MiB (5%)
Title                                    : www.alt-torrent.com
Language                                 : Spanish
Service kind                             : Complete Main
Default                                  : Yes
Forced                                   : No

Audio #2
ID                                       : 3
Format                                   : AC-3
Format/Info                              : Audio Coding 3
Commercial name                          : Dolby Digital
Codec ID                                 : A_AC3
Duration                                 : 1 h 37 min
Bit rate mode                            : Constant
Bit rate                                 : 384 kb/s
Channel(s)                               : 6 channels
Channel layout                           : L R C LFE Ls Rs
Sampling rate                            : 48.0 kHz
Frame rate                               : 31.250 FPS (1536 SPF)
Bit depth                                : 16 bits
Compression mode                         : Lossy
Stream size                              : 268 MiB (7%)
Title                                    : www.alt-torrent.com
Language                                 : Russian
Service kind                             : Complete Main
Default                                  : No
Forced                                   : No

BitRate : 5 239 kb/s
Audio Latino : AC3 2.0
Audio Ruso : AC3 2.0

* Chrome esta marcando los .torrent como archivos peligrosos,
Descarguenlos con confianza, son los mismos torrent de siempre.

 AMBOS AUDIOS FINALES
LATINO AC3 2.0 - RUSO AC3 5.1
SIN SUBTITULOS!