7.1/10
84.076
8.0/10
17

Alt-torrent Películas con audio latino para ver y compartir

Ralph sale de los recreativos y... ¡rompe Internet! ¿Qué podría salir mal? La secuela de "Rompe Ralph" (2012) tendrá lugar en el presente, seis años después de los acontecimientos de la primera película. En ella volveremos a ver a Ralph, el malo del videojuego que quiere ser un héroe, además de otros personajes ya conocidos, como Vanellope von Schweetz, la chica "error de programación" con un imparable espíritu ganador. La historia se centrará en las aventuras de Ralph y sus compañeros en el mundo de Internet.

Título original:
Ralph Breaks the Internet
Año:
2018
Duración:
112 min
País:
USA
Director:
Phil Johnston, Rich Moore
Escritor:
Phil Johnston (screenplay by), Pamela Ribon (screenplay by), Rich Moore (story by), Phil Johnston (story by), Jim Reardon (story by), Pamela Ribon (story by), Josie Trinidad (story by), Kelly Younger (Additional Story Material by)
Reparto:
John C. Reilly, Sarah Silverman, Gal Gadot, Taraji P. Henson
Productora:
Walt Disney Pictures,Walt Disney Animation Studios
Género:
Familia,Animación,Comedia,Fantasía
Format                                   : Matroska
Format version                           : Version 4
File size                                : 4.53 GiB
Duration                                 : 1 h 52 min
Overall bit rate                         : 5 765 kb/s
Movie name                               : www.alt-torrent.com - By FllorTV
Encoded date                             : UTC 2019-02-16 04:13:14
Writing application                      : mkvmerge v27.0.0 ('Metropolis') 64-bit
Writing library                          : libebml v1.3.6 + libmatroska v1.4.9

Video
ID                                       : 1
Format                                   : AVC
Format/Info                              : Advanced Video Codec
Format profile                           : [email protected]
Format settings                          : CABAC / 2 Ref Frames
Format settings, CABAC                   : Yes
Format settings, ReFrames                : 2 frames
Codec ID                                 : V_MPEG4/ISO/AVC
Duration                                 : 1 h 52 min
Bit rate                                 : 5 000 kb/s
Width                                    : 1 920 pixels
Height                                   : 804 pixels
Display aspect ratio                     : 2.40:1
Frame rate mode                          : Constant
Frame rate                               : 23.976 (24000/1001) FPS
Color space                              : YUV
Chroma subsampling                       : 4:2:0
Bit depth                                : 8 bits
Scan type                                : Progressive
Bits/(Pixel*Frame)                       : 0.135
Stream size                              : 3.93 GiB (87%)
Title                                    : www.alt-torrent.com
Writing library                          : x264 core 155 r2901
Encoding settings                        : cabac=1 / ref=2 / deblock=1:0:0 / analyse=0x3:0x133 / me=hex / subme=7 / psy=1 / psy_rd=1.00:0.00 / mixed_ref=0 / me_range=16 / chroma_me=1 / trellis=1 / 8x8dct=1 / cqm=0 / deadzone=21,11 / fast_pskip=1 / chroma_qp_offset=-2 / threads=25 / lookahead_threads=4 / sliced_threads=0 / nr=0 / decimate=1 / interlaced=0 / bluray_compat=0 / constrained_intra=0 / bframes=3 / b_pyramid=0 / b_adapt=1 / b_bias=0 / direct=3 / weightb=1 / open_gop=0 / weightp=2 / keyint=239 / keyint_min=23 / scenecut=40 / intra_refresh=0 / rc_lookahead=40 / rc=2pass / mbtree=1 / bitrate=5000 / ratetol=1.0 / qcomp=0.60 / qpmin=10 / qpmax=69 / qpstep=4 / cplxblur=20.0 / qblur=0.5 / vbv_maxrate=9500 / vbv_bufsize=24000 / nal_hrd=none / filler=0 / ip_ratio=1.40 / aq=3:1.00
Default                                  : Yes
Forced                                   : No

Audio #1
ID                                       : 2
Format                                   : AC-3
Format/Info                              : Audio Coding 3
Commercial name                          : Dolby Digital
Codec ID                                 : A_AC3
Duration                                 : 1 h 52 min
Bit rate mode                            : Constant
Bit rate                                 : 384 kb/s
Channel(s)                               : 6 channels
Channel layout                           : L R C LFE Ls Rs
Sampling rate                            : 48.0 kHz
Frame rate                               : 31.250 FPS (1536 SPF)
Bit depth                                : 16 bits
Compression mode                         : Lossy
Stream size                              : 309 MiB (7%)
Title                                    : latino
Language                                 : Spanish
Service kind                             : Complete Main
Default                                  : Yes
Forced                                   : No

Audio #2
ID                                       : 3
Format                                   : AC-3
Format/Info                              : Audio Coding 3
Commercial name                          : Dolby Digital
Codec ID                                 : A_AC3
Duration                                 : 1 h 52 min
Bit rate mode                            : Constant
Bit rate                                 : 384 kb/s
Channel(s)                               : 6 channels
Channel layout                           : L R C LFE Ls Rs
Sampling rate                            : 48.0 kHz
Frame rate                               : 31.250 FPS (1536 SPF)
Bit depth                                : 16 bits
Compression mode                         : Lossy
Stream size                              : 309 MiB (7%)
Title                                    : ingles
Language                                 : English
Service kind                             : Complete Main
Default                                  : No
Forced                                   : No

Text #1
ID                                       : 4
Format                                   : UTF-8
Codec ID                                 : S_TEXT/UTF8
Codec ID/Info                            : UTF-8 Plain Text
Duration                                 : 1 h 42 min
Bit rate                                 : 0 b/s
Count of elements                        : 3
Stream size                              : 85.0 Bytes (0%)
Title                                    : forzados
Language                                 : Spanish
Default                                  : Yes
Forced                                   : No

Text #2
ID                                       : 5
Format                                   : UTF-8
Codec ID                                 : S_TEXT/UTF8
Codec ID/Info                            : UTF-8 Plain Text
Duration                                 : 1 h 51 min
Bit rate                                 : 76 b/s
Count of elements                        : 1918
Stream size                              : 62.7 KiB (0%)
Title                                    : completos
Language                                 : Spanish
Default                                  : No
Forced                                   : No

BitRate : 5 765 kb/s
Audio Latino : AC3 5.1
Audio Inglés : AC3 5.1

* Chrome esta marcando los .torrent como archivos peligrosos,
Descarguenlos con confianza, son los mismos torrent de siempre.

 ambos audios finales
+ subtitulo SRT Latino


Calidad Versión Atributo Tamaño link
BR-RIP 720p 2.57 GB ralph-breaks-the-internet-720p-2018-br-rip-lat.html
FullHD 1080p Placebo 3.53 GB ralph-breaks-the-internet-1080p-2018-fullhd-lat.html
WEBDL 1080p 4.07 GB ralph-breaks-the-internet-1080p-2018-webdl-x265-lat.html
WEBDL 720p 2.49 GB ralph-breaks-the-internet-720p-2018-webdl-lat.html