5.3/10
36.491
6.8/10
16

Alt-torrent Películas con audio latino para ver y compartir

Cuando el joven Robin Hood (Taron Egerton) regresa a su hogar, endurecido, tras luchar como guerrero en Las Cruzadas, descubre un reino en el que la corrupción es la moneda de cambio de la corona inglesa. En ese momento, junto a su compañero Little John (Jamie Foxx), toma la decisión de formar una banda de bandidos y liderar una audaz rebelión en la que se enfrentarán al malvado Sheriff de Nottingham (Ben Mendelsohn).

Título original:
Robin Hood
Año:
2018
Duración:
116 min
País:
USA
Director:
Otto Bathurst
Escritor:
Ben Chandler (screenplay by), David James Kelly (screenplay by), Ben Chandler (story by)
Reparto:
Taron Egerton, Jamie Foxx, Ben Mendelsohn, Eve Hewson
Productora:
Appian Way,Safehouse Pictures,Summit Entertainment,Thunder Road Pictures
Género:
Aventura,Acción,Suspense
Robin Hood (2018) BR-RIP 1080p LAT - FllorTV

Format                      : Matroska
Format version              : Version 4 / Version 2
File size                   : 3.44 GiB
Duration                    : 1 h 56 min
Overall bit rate            : 4 238 kb/s
Movie name                  : www.alt-torrent.com / - By FllorTV
Encoded date                : UTC 2019-02-09 22:27:15
Writing application         : mkvmerge v31.0.0 ('Dolores In A Shoestand') 64-bit
Writing library             : libebml v1.3.6 + libmatroska v1.4.9

Video
ID                          : 1
Format                      : AVC
Format/Info                 : Advanced Video Codec
Format profile              : [email protected]
Format settings             : CABAC / 5 Ref Frames
Format settings, CABAC      : Yes
Format settings, RefFrames  : 5 frames
Codec ID                    : V_MPEG4/ISO/AVC
Duration                    : 1 h 56 min
Bit rate                    : 3 500 kb/s
Width                       : 1 920 pixels
Height                      : 800 pixels
Display aspect ratio        : 2.40:1
Frame rate mode             : Constant
Frame rate                  : 23.976 (24000/1001) FPS
Color space                 : YUV
Chroma subsampling          : 4:2:0
Bit depth                   : 8 bits
Scan type                   : Progressive
Bits/(Pixel*Frame)          : 0.095
Stream size                 : 2.81 GiB (82%)
Title                       : www.alt-torrent.com / - By FllorTV
Writing library             : x264 core 157 r2935 545de2f
Encoding settings           : cabac=1 / ref=5 / deblock=1:0:0 / analyse=0x1:0x111 / me=hex / subme=8 / psy=1 / psy_rd=1.00:0.00 / mixed_ref=1 / me_range=16 / chroma_me=1 / trellis=2 / 8x8dct=0 / cqm=0 / deadzone=21,11 / fast_pskip=1 / chroma_qp_offset=-2 / threads=25 / lookahead_threads=4 / sliced_threads=0 / nr=0 / decimate=1 / interlaced=0 / bluray_compat=0 / constrained_intra=0 / bframes=3 / b_pyramid=2 / b_adapt=1 / b_bias=0 / direct=3 / weightb=1 / open_gop=0 / weightp=2 / keyint=240 / keyint_min=24 / scenecut=40 / intra_refresh=0 / rc_lookahead=50 / rc=abr / mbtree=1 / bitrate=3500 / ratetol=1.0 / qcomp=0.60 / qpmin=0 / qpmax=69 / qpstep=4 / vbv_maxrate=20000 / vbv_bufsize=25000 / nal_hrd=none / filler=0 / ip_ratio=1.40 / aq=1:1.00
Default                     : Yes
Forced                      : No
Color range                 : Limited
Color primaries             : BT.709
Transfer characteristics    : BT.709
Matrix coefficients         : BT.709

Audio #1
ID                          : 2
Format                      : AC-3
Format/Info                 : Audio Coding 3
Format settings, Endianness : Big
Codec ID                    : A_AC3
Duration                    : 1 h 56 min
Bit rate mode               : Constant
Bit rate                    : 384 kb/s
Channel(s)                  : 6 channels
Channel positions           : Front: L C R, Side: L R, LFE
Sampling rate               : 48.0 kHz
Frame rate                  : 31.250 FPS (1536 SPF)
Bit depth                   : 16 bits
Compression mode            : Lossy
Stream size                 : 319 MiB (9%)
Title                       : Latino
Language                    : Spanish
Service kind                : Complete Main
Default                     : Yes
Forced                      : No

Audio #2
ID                          : 3
Format                      : AC-3
Format/Info                 : Audio Coding 3
Format settings, Endianness : Big
Codec ID                    : A_AC3
Duration                    : 1 h 56 min
Bit rate mode               : Constant
Bit rate                    : 384 kb/s
Channel(s)                  : 6 channels
Channel positions           : Front: L C R, Side: L R, LFE
Sampling rate               : 48.0 kHz
Frame rate                  : 31.250 FPS (1536 SPF)
Bit depth                   : 16 bits
Compression mode            : Lossy
Stream size                 : 319 MiB (9%)
Title                       : Ingles
Language                    : English
Service kind                : Complete Main
Default                     : No
Forced                      : No

Text #1
ID                          : 4
Format                      : UTF-8
Codec ID                    : S_TEXT/UTF8
Codec ID/Info               : UTF-8 Plain Text
Duration                    : 1 h 46 min
Bit rate                    : 0 b/s
Count of elements           : 11
Stream size                 : 438 Bytes (0%)
Title                       : Forzados
Language                    : Spanish
Default                     : Yes
Forced                      : Yes

Text #2
ID                          : 5
Format                      : UTF-8
Codec ID                    : S_TEXT/UTF8
Codec ID/Info               : UTF-8 Plain Text
Duration                    : 1 h 46 min
Bit rate                    : 46 b/s
Count of elements           : 1227
Stream size                 : 36.6 KiB (0%)
Title                       : Completos
Language                    : Spanish
Default                     : No
Forced                      : No


BitRate : 4 238 kb/s
Audio Latino : AC3 5.1
Audio Inglés : AC3 5.1

* Chrome esta marcando los .torrent como archivos peligrosos,
Descarguenlos con confianza, son los mismos torrent de siempre.



Calidad Versión Atributo Tamaño link
WEBDL 1080p 4.35 GB robin-hood-1080p-2018-webdl-lat.html
WEBDL 720p 2.71 GB robin-hood-720p-2018-webdl-lat.html