5.3/10
44.753
6.6/10
20

Alt-torrent Películas con audio latino para ver y compartir

Cuando el joven Robin Hood (Taron Egerton) regresa a su hogar, endurecido, tras luchar como guerrero en Las Cruzadas, descubre un reino en el que la corrupción es la moneda de cambio de la corona inglesa. En ese momento, junto a su compañero Little John (Jamie Foxx), toma la decisión de formar una banda de bandidos y liderar una audaz rebelión en la que se enfrentarán al malvado Sheriff de Nottingham (Ben Mendelsohn).

Título original:
Robin Hood
Año:
2018
Duración:
116 min
País:
USA
Director:
Otto Bathurst
Escritor:
Ben Chandler (screenplay by), David James Kelly (screenplay by), Ben Chandler (story by)
Reparto:
Taron Egerton, Jamie Foxx, Ben Mendelsohn, Eve Hewson
Productora:
Appian Way,Safehouse Pictures,Summit Entertainment,Thunder Road Pictures
Género:
Aventura,Acción,Suspense
Format                                   : Matroska
Format version                           : Version 4
File size                                : 4.34 GiB
Duration                                 : 1 h 56 min
Overall bit rate                         : 5 357 kb/s
Movie name                               : www.alt-torrent.com - By FllorTV
Encoded date                             : UTC 2019-02-06 02:21:44
Writing application                      : mkvmerge v27.0.0 ('Metropolis') 64-bit
Writing library                          : libebml v1.3.6 + libmatroska v1.4.9

Video
ID                                       : 1
Format                                   : AVC
Format/Info                              : Advanced Video Codec
Format profile                           : [email protected]
Format settings                          : CABAC / 5 Ref Frames
Format settings, CABAC                   : Yes
Format settings, ReFrames                : 5 frames
Codec ID                                 : V_MPEG4/ISO/AVC
Duration                                 : 1 h 56 min
Bit rate                                 : 4 523 kb/s
Width                                    : 1 920 pixels
Height                                   : 798 pixels
Display aspect ratio                     : 2.40:1
Frame rate mode                          : Constant
Frame rate                               : 23.976 FPS
Color space                              : YUV
Chroma subsampling                       : 4:2:0
Bit depth                                : 8 bits
Scan type                                : Progressive
Bits/(Pixel*Frame)                       : 0.123
Stream size                              : 3.67 GiB (84%)
Title                                    : www.alt-torrent.com
Language                                 : English
Default                                  : Yes
Forced                                   : No
Color range                              : Limited
Color primaries                          : BT.709
Transfer characteristics                 : BT.709
Matrix coefficients                      : BT.709

Audio #1
ID                                       : 2
Format                                   : AC-3
Format/Info                              : Audio Coding 3
Commercial name                          : Dolby Digital
Codec ID                                 : A_AC3
Duration                                 : 1 h 56 min
Bit rate mode                            : Constant
Bit rate                                 : 448 kb/s
Channel(s)                               : 6 channels
Channel layout                           : L R C LFE Ls Rs
Sampling rate                            : 48.0 kHz
Frame rate                               : 31.250 FPS (1536 SPF)
Bit depth                                : 16 bits
Compression mode                         : Lossy
Stream size                              : 372 MiB (8%)
Title                                    : latino
Language                                 : Spanish
Service kind                             : Complete Main
Default                                  : Yes
Forced                                   : No

Audio #2
ID                                       : 3
Format                                   : AC-3
Format/Info                              : Audio Coding 3
Commercial name                          : Dolby Digital
Codec ID                                 : A_AC3
Duration                                 : 1 h 56 min
Bit rate mode                            : Constant
Bit rate                                 : 384 kb/s
Channel(s)                               : 6 channels
Channel layout                           : L R C LFE Ls Rs
Sampling rate                            : 48.0 kHz
Frame rate                               : 31.250 FPS (1536 SPF)
Bit depth                                : 16 bits
Compression mode                         : Lossy
Stream size                              : 319 MiB (7%)
Title                                    : ingles
Language                                 : English
Service kind                             : Complete Main
Default                                  : No
Forced                                   : No

Text #1
ID                                       : 4
Format                                   : UTF-8
Codec ID                                 : S_TEXT/UTF8
Codec ID/Info                            : UTF-8 Plain Text
Duration                                 : 1 h 45 min
Bit rate                                 : 47 b/s
Count of elements                        : 1226
Stream size                              : 36.6 KiB (0%)
Title                                    : completos
Language                                 : Spanish
Default                                  : No
Forced                                   : No

Text #2
ID                                       : 5
Format                                   : UTF-8
Codec ID                                 : S_TEXT/UTF8
Codec ID/Info                            : UTF-8 Plain Text
Duration                                 : 5 s 0 ms
Bit rate                                 : 49 b/s
Count of elements                        : 1
Stream size                              : 31.0 Bytes (0%)
Title                                    : forzados
Language                                 : Spanish
Default                                  : Yes
Forced                                   : No

BitRate : 5 357 kb/s
Audio Latino : AC3 2.0
Audio Inglés : AC3 2.0

* Chrome esta marcando los .torrent como archivos peligrosos,
Descarguenlos con confianza, son los mismos torrent de siempre.

 AMBOS AUDIOS FINALES
+ SUBTITULOS SRT LATINO


Calidad Versión Atributo Tamaño link
BR-RIP 1080p 3.44 GB robin-hood-1080p-2018-br-rip-lat.html
WEBDL 720p 2.71 GB robin-hood-720p-2018-webdl-lat.html