7.8/10
106.670
3.7/10
3

Alt-torrent Películas con audio latino para ver y compartir

Cleo (Yalitza Aparicio) es la joven sirvienta de una familia que vive en la Colonia Roma, barrio de clase media-alta de Ciudad de México. En esta carta de amor a las mujeres que lo criaron, Cuarón se inspira en su propia infancia para pintar un retrato realista y emotivo de los conflictos domésticos y las jerarquías sociales durante la agitación política de la década de los 70.

Título original:
Roma
Año:
2018
Duración:
135 min
País:
Mexico, USA
Director:
Alfonso Cuarón
Escritor:
Alfonso Cuarón
Reparto:
Yalitza Aparicio, Marina de Tavira, Diego Cortina Autrey, Carlos Peralta
Productora:
Participant Media,Esperanto Filmoj
Género:
Drama
Roma (2018) Netflix [60fps] LAT - By FllorTV

Format                      : Matroska
Format version              : Version 4 / Version 2
File size                   : 7.67 GiB
Duration                    : 2 h 15 min
Overall bit rate            : 8 113 kb/s
Movie name                  : www.alt-torrent.com - By FllorTV
Encoded date                : UTC 2019-01-08 05:00:20
Writing application         : mkvmerge v30.1.0 ('Forever And More') 64-bit
Writing library             : libebml v1.3.6 + libmatroska v1.4.9

Video
ID                          : 1
Format                      : AVC
Format/Info                 : Advanced Video Codec
Format profile              : [email protected]
Format settings             : CABAC / 8 Ref Frames
Format settings, CABAC      : Yes
Format settings, ReFrames   : 8 frames
Codec ID                    : V_MPEG4/ISO/AVC
Duration                    : 2 h 15 min
Bit rate                    : 7 500 kb/s
Width                       : 1 920 pixels
Height                      : 1 080 pixels
Display aspect ratio        : 16:9
Frame rate mode             : Constant
Frame rate                  : 60.000 FPS
Color space                 : YUV
Chroma subsampling          : 4:2:0
Bit depth                   : 8 bits
Scan type                   : Progressive
Bits/(Pixel*Frame)          : 0.060
Stream size                 : 7.06 GiB (92%)
Title                       : www.alt-torrent.com
Writing library             : x264 core 155 r2901
Encoding settings           : cabac=1 / ref=8 / deblock=1:0:0 / analyse=0x3:0x133 / me=umh / subme=9 / psy=1 / psy_rd=1.00:0.00 / mixed_ref=0 / me_range=16 / chroma_me=1 / trellis=2 / 8x8dct=1 / cqm=0 / deadzone=21,11 / fast_pskip=1 / chroma_qp_offset=-2 / threads=34 / lookahead_threads=2 / sliced_threads=0 / nr=0 / decimate=1 / interlaced=0 / bluray_compat=0 / constrained_intra=0 / bframes=3 / b_pyramid=0 / b_adapt=2 / b_bias=0 / direct=3 / weightb=1 / open_gop=0 / weightp=2 / keyint=600 / keyint_min=60 / scenecut=40 / intra_refresh=0 / rc_lookahead=60 / rc=2pass / mbtree=1 / bitrate=7500 / ratetol=1.0 / qcomp=0.60 / qpmin=10 / qpmax=69 / qpstep=4 / cplxblur=20.0 / qblur=0.5 / vbv_maxrate=8000 / vbv_bufsize=24000 / nal_hrd=none / filler=0 / ip_ratio=1.40 / aq=3:1.00
Default                     : Yes
Forced                      : No

Audio
ID                          : 2
Format                      : AC-3
Format/Info                 : Audio Coding 3
Codec ID                    : A_AC3
Duration                    : 2 h 15 min
Bit rate mode               : Constant
Bit rate                    : 640 kb/s
Channel(s)                  : 6 channels
Channel positions           : Front: L C R, Side: L R, LFE
Sampling rate               : 48.0 kHz
Frame rate                  : 31.250 FPS (1536 SPF)
Bit depth                   : 16 bits
Compression mode            : Lossy
Stream size                 : 619 MiB (8%)
Title                       : latino
Language                    : Spanish
Service kind                : Complete Main
Default                     : Yes
Forced                      : No

Text
ID                          : 3
Format                      : UTF-8
Codec ID                    : S_TEXT/UTF8
Codec ID/Info               : UTF-8 Plain Text
Duration                    : 2 h 8 min
Bit rate                    : 2 b/s
Count of elements           : 58
Stream size                 : 2.04 KiB (0%)
Title                       : Forzados
Language                    : Spanish
Default                     : Yes
Forced                      : Yes


BitRate : 8 113 kb/s
Audio Latino : AC3 5.1

* Chrome esta marcando los .torrent como archivos peligrosos,
Descarguenlos con confianza, son los mismos torrent de siempre.



Calidad Versión Atributo Tamaño link
NETFLIX 1080p 4.14 GB roma-2018-netflix-lat.html
NETFLIX 1080p [H.265] 2.52 GB roma-h265-2018-netflix-lat.html