7.8/10
99.342
5.3/10
3

Alt-torrent Películas con audio latino para ver y compartir

Cleo (Yalitza Aparicio) es la joven sirvienta de una familia que vive en la Colonia Roma, barrio de clase media-alta de Ciudad de México. En esta carta de amor a las mujeres que lo criaron, Cuarón se inspira en su propia infancia para pintar un retrato realista y emotivo de los conflictos domésticos y las jerarquías sociales durante la agitación política de la década de los 70.

Título original:
Roma
Año:
2018
Duración:
135 min
País:
Mexico, USA
Director:
Alfonso Cuarón
Escritor:
Alfonso Cuarón
Reparto:
Yalitza Aparicio, Marina de Tavira, Diego Cortina Autrey, Carlos Peralta
Productora:
Participant Media,Esperanto Filmoj
Género:
Drama
Roma (2018) Netflix [H.265] LAT

Format                      : Matroska
Format version              : Version 4 / Version 2
File size                   : 2.51 GiB
Duration                    : 2 h 15 min
Overall bit rate            : 2 661 kb/s
Movie name                  : www.alt-torrent.com / - By FllorTV
Encoded date                : UTC 2019-01-07 17:22:03
Writing application         : mkvmerge v30.1.0 ('Forever And More') 64-bit
Writing library             : libebml v1.3.6 + libmatroska v1.4.9

Video
ID                          : 1
Format                      : HEVC
Format/Info                 : High Efficiency Video Coding
Format profile              : Main [email protected]@Main
Codec ID                    : V_MPEGH/ISO/HEVC
Duration                    : 2 h 15 min
Bit rate                    : 2 275 kb/s
Width                       : 1 920 pixels
Height                      : 808 pixels
Display aspect ratio        : 2.40:1
Frame rate mode             : Constant
Frame rate                  : 23.976 (24000/1001) FPS
Color space                 : YUV
Chroma subsampling          : 4:2:0
Bit depth                   : 10 bits
Bits/(Pixel*Frame)          : 0.061
Stream size                 : 2.15 GiB (86%)
Title                       : www.alt-torrent.com / - By FllorTV
Default                     : Yes
Forced                      : No

Audio
ID                          : 2
Format                      : AC-3
Format/Info                 : Audio Coding 3
Codec ID                    : A_AC3
Duration                    : 2 h 15 min
Bit rate mode               : Constant
Bit rate                    : 384 kb/s
Channel(s)                  : 6 channels
Channel positions           : Front: L C R, Side: L R, LFE
Sampling rate               : 48.0 kHz
Frame rate                  : 31.250 FPS (1536 SPF)
Bit depth                   : 16 bits
Compression mode            : Lossy
Stream size                 : 372 MiB (14%)
Title                       : Latino
Language                    : Spanish
Service kind                : Complete Main
Default                     : Yes
Forced                      : No

Text
ID                          : 3
Format                      : UTF-8
Codec ID                    : S_TEXT/UTF8
Codec ID/Info               : UTF-8 Plain Text
Duration                    : 2 h 8 min
Bit rate                    : 2 b/s
Count of elements           : 58
Stream size                 : 2.04 KiB (0%)
Title                       : Forzados
Language                    : Spanish
Default                     : Yes
Forced                      : Yes


BitRate : 2 661 kb/s
Audio Latino : AC3 5.1

* Chrome esta marcando los .torrent como archivos peligrosos,
Descarguenlos con confianza, son los mismos torrent de siempre.



Calidad Versión Atributo Tamaño link
NETFLIX 1080p 4.14 GB roma-2018-netflix-lat.html
NETFLIX 1080p [60fps] 7.67 GB roma-60fps-2018-netflix-lat.html