5.5/10
769
8.1/10
1

Alt-torrent Películas para ver y compartir

When an overachieving college senior makes a wrong turn, her road trip becomes a life-changing fight for survival in rural Kentucky.

Título original:
Rust Creek
Año:
2018
Duración:
N/A
País:
USA
Director:
Jen McGowan
Escritor:
Julie Lipson, Stu Pollard (story by)
Reparto:
Hermione Corfield, Denise Dal Vera, Jeremy Glazer, Laura Guzman
Productora:
Lunacy Productions
Género:
Suspense,Drama
Format                                   : Matroska
Format version                           : Version 4
File size                                : 4.77 GiB
Duration                                 : 1 h 48 min
Overall bit rate                         : 6 316 kb/s
Movie name                               : www.alt-torrent.com - By FllorTV
Encoded date                             : UTC 2019-01-10 00:38:59
Writing application                      : mkvmerge v27.0.0 ('Metropolis') 64-bit
Writing library                          : libebml v1.3.6 + libmatroska v1.4.9

Video
ID                                       : 1
Format                                   : AVC
Format/Info                              : Advanced Video Codec
Format profile                           : [email protected]
Format settings                          : CABAC / 4 Ref Frames
Format settings, CABAC                   : Yes
Format settings, ReFrames                : 4 frames
Codec ID                                 : V_MPEG4/ISO/AVC
Duration                                 : 1 h 48 min
Bit rate                                 : 5 674 kb/s
Width                                    : 1 920 pixels
Height                                   : 800 pixels
Display aspect ratio                     : 2.40:1
Frame rate mode                          : Constant
Frame rate                               : 23.976 (24000/1001) FPS
Color space                              : YUV
Chroma subsampling                       : 4:2:0
Bit depth                                : 8 bits
Scan type                                : Progressive
Bits/(Pixel*Frame)                       : 0.154
Stream size                              : 4.28 GiB (90%)
Title                                    : www.alt-torrent.com
Default                                  : Yes
Forced                                   : No
Color range                              : Limited
Color primaries                          : BT.709
Transfer characteristics                 : BT.709
Matrix coefficients                      : BT.709

Audio
ID                                       : 2
Format                                   : E-AC-3
Format/Info                              : Enhanced AC-3
Commercial name                          : Dolby Digital Plus
Codec ID                                 : A_EAC3
Duration                                 : 1 h 48 min
Bit rate mode                            : Constant
Bit rate                                 : 640 kb/s
Channel(s)                               : 6 channels
Channel layout                           : L R C LFE Ls Rs
Sampling rate                            : 48.0 kHz
Frame rate                               : 31.250 FPS (1536 SPF)
Compression mode                         : Lossy
Stream size                              : 495 MiB (10%)
Title                                    : ingles
Language                                 : English
Service kind                             : Complete Main
Default                                  : Yes
Forced                                   : No

Text
ID                                       : 3
Format                                   : UTF-8
Codec ID                                 : S_TEXT/UTF8
Codec ID/Info                            : UTF-8 Plain Text
Duration                                 : 1 h 44 min
Bit rate                                 : 44 b/s
Count of elements                        : 998
Stream size                              : 33.7 KiB (0%)
Title                                    : latino
Language                                 : Spanish
Default                                  : Yes
Forced                                   : No

BitRate : 6 316 kb/s
Audio Inglés : E-AC3 5.1



Calidad Versión Tamaño link
WEBDL [720p] 2.37 GB rust-creek-720p-2018-webdl-eng.html

Puntuación

Basado en 0 valoraciones

0.0

Desglose de puntuación

  • Película
    0.0
  • Audio
    0.0
  • Video
    0.0