7.7/10
91.066
8.7/10
7

Alt-torrent Películas con audio latino para ver y compartir

Después de que la hija de 16 años de David Kim desaparece, se abre una investigación policial. Pero 37 horas más tarde y sin una sola pista, David decide buscar en el único lugar donde nadie ha buscado todavía y donde se guardan todos los secretos hoy en día: el ordenador portátil de su hija. David debe rastrear las huellas digitales de su hija antes de que desaparezca para siempre. Un thriller que se desarrolla en la pantalla del ordenador.

Título original:
Searching
Año:
2018
Duración:
102 min
País:
USA, Russia
Director:
Aneesh Chaganty
Escritor:
Aneesh Chaganty, Sev Ohanian
Reparto:
John Cho, Sara Sohn, Alex Jayne Go, Megan Liu
Productora:
Stage 6 Films,Bazelevs Production,Screen Gems
Género:
Drama,Suspense,Misterio
Searching (2018) FullHD LAT - FllorTV

Format                      : Matroska
Format version              : Version 4 / Version 2
File size                   : 7.17 GiB
Duration                    : 1 h 42 min
Overall bit rate            : 9 998 kb/s
Movie name                  : www.alt-torrent.com - By FllorTV
Encoded date                : UTC 2019-01-04 05:53:25
Writing application         : mkvmerge v28.2.0 ('The Awakening') 64-bit
Writing library             : libebml v1.3.6 + libmatroska v1.4.9

Video
ID                          : 1
Format                      : AVC
Format/Info                 : Advanced Video Codec
Format profile              : [email protected]
Format settings             : CABAC / 4 Ref Frames
Format settings, CABAC      : Yes
Format settings, ReFrames   : 4 frames
Codec ID                    : V_MPEG4/ISO/AVC
Duration                    : 1 h 42 min
Bit rate                    : 9 191 kb/s
Width                       : 1 920 pixels
Height                      : 1 080 pixels
Display aspect ratio        : 16:9
Frame rate mode             : Constant
Frame rate                  : 23.976 FPS
Color space                 : YUV
Chroma subsampling          : 4:2:0
Bit depth                   : 8 bits
Scan type                   : Progressive
Bits/(Pixel*Frame)          : 0.185
Stream size                 : 6.57 GiB (92%)
Title                       : www.alt-torrent.com
Writing library             : x264 core 157 r2935 545de2f
Encoding settings           : cabac=1 / ref=4 / deblock=1:0:0 / analyse=0x3:0x133 / me=umh / subme=7 / psy=1 / psy_rd=1.00:0.00 / mixed_ref=1 / me_range=16 / chroma_me=1 / trellis=1 / 8x8dct=1 / cqm=0 / deadzone=21,11 / fast_pskip=0 / chroma_qp_offset=-2 / threads=30 / lookahead_threads=5 / sliced_threads=0 / nr=0 / decimate=1 / interlaced=0 / bluray_compat=0 / constrained_intra=0 / bframes=3 / b_pyramid=2 / b_adapt=1 / b_bias=0 / direct=1 / weightb=1 / open_gop=0 / weightp=2 / keyint=250 / keyint_min=23 / scenecut=40 / intra_refresh=0 / rc_lookahead=40 / rc=2pass / mbtree=1 / bitrate=9191 / ratetol=1.0 / qcomp=0.60 / qpmin=0 / qpmax=69 / qpstep=4 / cplxblur=20.0 / qblur=0.5 / ip_ratio=1.40 / aq=1:1.00
Default                     : Yes
Forced                      : No

Audio #1
ID                          : 2
Format                      : AC-3
Format/Info                 : Audio Coding 3
Codec ID                    : A_AC3
Duration                    : 1 h 42 min
Bit rate mode               : Constant
Bit rate                    : 448 kb/s
Channel(s)                  : 6 channels
Channel positions           : Front: L C R, Side: L R, LFE
Sampling rate               : 48.0 kHz
Frame rate                  : 31.250 FPS (1536 SPF)
Bit depth                   : 16 bits
Compression mode            : Lossy
Delay relative to video     : 24 ms
Stream size                 : 329 MiB (4%)
Title                       : Latino
Language                    : Spanish
Service kind                : Complete Main
Default                     : Yes
Forced                      : No

Audio #2
ID                          : 3
Format                      : AC-3
Format/Info                 : Audio Coding 3
Codec ID                    : A_AC3
Duration                    : 1 h 42 min
Bit rate mode               : Constant
Bit rate                    : 384 kb/s
Channel(s)                  : 6 channels
Channel positions           : Front: L C R, Side: L R, LFE
Sampling rate               : 48.0 kHz
Frame rate                  : 31.250 FPS (1536 SPF)
Bit depth                   : 16 bits
Compression mode            : Lossy
Stream size                 : 281 MiB (4%)
Title                       : Ingles
Language                    : English
Service kind                : Complete Main
Default                     : No
Forced                      : No

Text #1
ID                          : 4
Format                      : UTF-8
Codec ID                    : S_TEXT/UTF8
Codec ID/Info               : UTF-8 Plain Text
Duration                    : 5 s 0 ms
Bit rate                    : 49 b/s
Count of elements           : 1
Stream size                 : 31.0 Bytes (0%)
Title                       : Forzados
Language                    : Spanish
Default                     : Yes
Forced                      : Yes

Text #2
ID                          : 5
Format                      : UTF-8
Codec ID                    : S_TEXT/UTF8
Codec ID/Info               : UTF-8 Plain Text
Duration                    : 1 h 41 min
Bit rate                    : 63 b/s
Count of elements           : 1334
Stream size                 : 47.1 KiB (0%)
Title                       : Completos
Language                    : Spanish
Default                     : No
Forced                      : No

Menu
00:00:00.000                : en:Chapter 1
00:06:25.385                : en:Chapter 2
00:12:41.636                : en:Chapter 3
00:20:13.546                : en:Chapter 4
00:23:12.850                : en:Chapter 5
00:31:01.651                : en:Chapter 6
00:35:49.647                : en:Chapter 7
00:39:39.460                : en:Chapter 8
00:47:27.845                : en:Chapter 9
00:53:31.708                : en:Chapter 10
00:59:16.928                : en:Chapter 11
01:05:29.217                : en:Chapter 12
01:13:07.258                : en:Chapter 13
01:21:14.620                : en:Chapter 14
01:26:07.204                : en:Chapter 15
01:34:32.792                : en:Chapter 16


BitRate : 9 998 kb/s
Audio Latino : AC3 5.1
Audio Inglés : AC3 5.1

* Chrome esta marcando los .torrent como archivos peligrosos,
Descarguenlos con confianza, son los mismos torrent de siempre.



Calidad Versión Atributo Tamaño link
WEBDL 1080p 4.32 GB searching-2018-webdl-lat.html