7.2/10
160.136
8.1/10
8

Alt-torrent Películas para ver y compartir

Todos llevamos un superhéroe dentro, solo se necesita un poco de magia para sacarlo a la luz. Cuando Billy Batson, un niño de acogida de 14 años que ha crecido en las calles, grita la palabra 'SHAZAM!' se convierte en el Superhéroe adulto Shazam, por cortesía de un antiguo mago. Dentro de un cuerpo musculoso y divino, Shazam esconde un corazón de niño. Pero lo mejor es que en esta versión de adulto consigue realizar todo lo que le gustaría hacer a cualquier adolescente con superpoderes: ¡divertirse con ellos! ¿Volar? ¿Tener visión de rayos X? ¿Disparar un rayo con las manos? ¿Saltarse el examen de sociales? Shazam va a poner a prueba los límites de sus habilidades con la inconsciencia propia de un niño. Pero necesitará dominar rápidamente esos poderes para luchar contra las letales fuerzas del mal que controla el Dr. Thaddeus Sivana.

Título original:
Shazam!
Año:
2019
Duración:
132 min
País:
USA
Director:
David F. Sandberg
Escritor:
Henry Gayden (screenplay by), Henry Gayden (story by), Darren Lemke (story by), Bill Parker (Shazam created by), C.C. Beck (Shazam created by)
Reparto:
Zachary Levi, Mark Strong, Asher Angel, Jack Dylan Grazer
Productora:
DC Entertainment,DC Comics,New Line Cinema,Warner Bros. Pictures,The Safran Company,Seven Bucks Productions
Género:
Acción,Aventura,Comedia,Fantasía
Format                                   : Matroska
Format version                           : Version 4
File size                                : 5.17 GiB
Duration                                 : 2 h 11 min
Overall bit rate                         : 5 624 kb/s
Movie name                               : www.alt-torrent.com
Encoded date                             : UTC 2019-06-26 23:38:51
Writing application                      : mkvmerge v27.0.0 ('Metropolis') 64-bit
Writing library                          : libebml v1.3.6 + libmatroska v1.4.9

Video
ID                                       : 1
Format                                   : AVC
Format/Info                              : Advanced Video Codec
Format profile                           : [email protected]
Format settings                          : CABAC / 2 Ref Frames
Format settings, CABAC                   : Yes
Format settings, ReFrames                : 2 frames
Codec ID                                 : V_MPEG4/ISO/AVC
Duration                                 : 2 h 11 min
Bit rate                                 : 5 000 kb/s
Width                                    : 1 920 pixels
Height                                   : 800 pixels
Display aspect ratio                     : 2.40:1
Frame rate mode                          : Constant
Frame rate                               : 23.976 (24000/1001) FPS
Color space                              : YUV
Chroma subsampling                       : 4:2:0
Bit depth                                : 8 bits
Scan type                                : Progressive
Bits/(Pixel*Frame)                       : 0.136
Stream size                              : 4.58 GiB (89%)
Title                                    : www.alt-torrent.com
Writing library                          : x264 core 155 r2901
Encoding settings                        : cabac=1 / ref=2 / deblock=1:0:0 / analyse=0x3:0x133 / me=hex / subme=7 / psy=1 / psy_rd=1.00:0.00 / mixed_ref=0 / me_range=16 / chroma_me=1 / trellis=1 / 8x8dct=1 / cqm=0 / deadzone=21,11 / fast_pskip=1 / chroma_qp_offset=-2 / threads=12 / lookahead_threads=2 / sliced_threads=0 / nr=0 / decimate=1 / interlaced=0 / bluray_compat=0 / constrained_intra=0 / bframes=3 / b_pyramid=0 / b_adapt=1 / b_bias=0 / direct=0 / weightb=1 / open_gop=0 / weightp=2 / keyint=239 / keyint_min=23 / scenecut=40 / intra_refresh=0 / rc_lookahead=40 / rc=2pass / mbtree=1 / bitrate=5000 / ratetol=1.0 / qcomp=0.60 / qpmin=10 / qpmax=69 / qpstep=4 / cplxblur=20.0 / qblur=0.5 / vbv_maxrate=5550 / vbv_bufsize=24000 / nal_hrd=none / filler=0 / ip_ratio=1.40 / aq=3:1.00
Default                                  : Yes
Forced                                   : No

Audio
ID                                       : 2
Format                                   : AC-3
Format/Info                              : Audio Coding 3
Commercial name                          : Dolby Digital
Codec ID                                 : A_AC3
Duration                                 : 2 h 11 min
Bit rate mode                            : Constant
Bit rate                                 : 640 kb/s
Channel(s)                               : 6 channels
Channel layout                           : L R C LFE Ls Rs
Sampling rate                            : 48.0 kHz
Frame rate                               : 31.250 FPS (1536 SPF)
Bit depth                                : 16 bits
Compression mode                         : Lossy
Delay relative to video                  : -5 ms
Stream size                              : 603 MiB (11%)
Title                                    : www.alt-torrent.com
Language                                 : English
Service kind                             : Complete Main
Default                                  : Yes
Forced                                   : No

Text
ID                                       : 3
Format                                   : UTF-8
Codec ID                                 : S_TEXT/UTF8
Codec ID/Info                            : UTF-8 Plain Text
Duration                                 : 2 h 10 min
Bit rate                                 : 60 b/s
Count of elements                        : 1907
Stream size                              : 57.8 KiB (0%)
Title                                    : www.alt-torrent.com
Language                                 : Spanish
Default                                  : Yes
Forced                                   : No

BitRate : 5 624 kb/s
Audio Inglés : AC3 5.1

* Chrome esta marcando los .torrent como archivos peligrosos,
Descarguenlos con confianza, son los mismos torrent de siempre.

 AUDIO INGLES FINAL AC3 5.1
+ SUBTITULO SRT LATINO


Calidad Versión Atributo Tamaño link
BR-RIP 720p 2.89 GB shazam-720p-2019-br-rip-eng.html
BR-RIP 1080p 3.97 GB shazam-1080p-2019-br-rip-lat.html
BR-RIP 720p 3.07 GB shazam-720p-2019-br-rip-lat.html
FullHD 1080p 9.76 GB shazam-1080p-2019-fullhd-lat.html
HD-RIP 1080p 3.79 GB shazam-1080p-2019-hd-rip-eng.html
HD-RIP 720p 2.52 GB shazam-720p-2019-hd-rip-eng.html