8.5/10
189.646
8.9/10
15

Alt-torrent Películas con audio latino para ver y compartir

En un universo paralelo donde Peter Parker ha muerto, un joven de secundaria llamado Miles Morales es el nuevo Spider-Man. Sin embargo, cuando el líder mafioso Wilson Fisk (a.k.a Kingpin) construye el "Super Colisionador" trae a una versión alternativa de Peter Parker que tratará de enseñarle a Miles como ser un mejor Spider-Man. Pero no será el único Spider Man en entrar a este universo, 4 versiones alternas de Spidey aparecerán y buscarán regresar a su universo antes de que toda la realidad colapse

Título original:
Spider-Man: Into the Spider-Verse
Año:
2018
Duración:
117 min
País:
USA
Director:
Bob Persichetti, Peter Ramsey, Rodney Rothman
Escritor:
Phil Lord (screenplay by), Rodney Rothman (screenplay by), Phil Lord (story by)
Reparto:
Shameik Moore, Jake Johnson, Hailee Steinfeld, Mahershala Ali
Productora:
Columbia Pictures,Sony Pictures,Sony Pictures Animation,Marvel Entertainment,Pascal Pictures,Arad Productions
Género:
Acción,Aventura,Animación,Ciencia ficción,Comedia
Format                                   : Matroska
Format version                           : Version 4
File size                                : 3.72 GiB
Duration                                 : 1 h 56 min
Overall bit rate                         : 4 561 kb/s
Movie name                               : www.alt-torrent.com
Encoded date                             : UTC 2019-03-08 22:02:58
Writing application                      : mkvmerge v27.0.0 ('Metropolis') 64-bit
Writing library                          : libebml v1.3.6 + libmatroska v1.4.9

Video
ID                                       : 1
Format                                   : AVC
Format/Info                              : Advanced Video Codec
Format profile                           : [email protected]
Format settings                          : CABAC / 5 Ref Frames
Format settings, CABAC                   : Yes
Format settings, ReFrames                : 5 frames
Codec ID                                 : V_MPEG4/ISO/AVC
Duration                                 : 1 h 56 min
Bit rate                                 : 3 500 kb/s
Width                                    : 1 920 pixels
Height                                   : 804 pixels
Display aspect ratio                     : 2.40:1
Frame rate mode                          : Constant
Frame rate                               : 23.976 (24000/1001) FPS
Color space                              : YUV
Chroma subsampling                       : 4:2:0
Bit depth                                : 8 bits
Scan type                                : Progressive
Bits/(Pixel*Frame)                       : 0.095
Stream size                              : 2.83 GiB (76%)
Title                                    : www.alt-torrent.com
Writing library                          : x264 core 157 r2935 545de2f
Encoding settings                        : cabac=1 / ref=5 / deblock=1:0:0 / analyse=0x3:0x113 / me=hex / subme=8 / psy=1 / psy_rd=1.00:0.00 / mixed_ref=1 / me_range=16 / chroma_me=1 / trellis=2 / 8x8dct=1 / cqm=0 / deadzone=21,11 / fast_pskip=1 / chroma_qp_offset=-2 / threads=25 / lookahead_threads=4 / sliced_threads=0 / nr=0 / decimate=1 / interlaced=0 / bluray_compat=0 / constrained_intra=0 / bframes=3 / b_pyramid=2 / b_adapt=1 / b_bias=0 / direct=3 / weightb=1 / open_gop=0 / weightp=2 / keyint=240 / keyint_min=24 / scenecut=40 / intra_refresh=0 / rc_lookahead=50 / rc=abr / mbtree=1 / bitrate=3500 / ratetol=1.0 / qcomp=0.60 / qpmin=0 / qpmax=69 / qpstep=4 / vbv_maxrate=62500 / vbv_bufsize=78125 / nal_hrd=none / filler=0 / ip_ratio=1.40 / aq=1:1.00
Default                                  : Yes
Forced                                   : No
Color range                              : Limited
Color primaries                          : BT.709
Transfer characteristics                 : BT.709
Matrix coefficients                      : BT.709

Audio #1
ID                                       : 2
Format                                   : AC-3
Format/Info                              : Audio Coding 3
Commercial name                          : Dolby Digital
Codec ID                                 : A_AC3
Duration                                 : 1 h 56 min
Bit rate mode                            : Constant
Bit rate                                 : 640 kb/s
Channel(s)                               : 6 channels
Channel layout                           : L R C LFE Ls Rs
Sampling rate                            : 48.0 kHz
Frame rate                               : 31.250 FPS (1536 SPF)
Bit depth                                : 16 bits
Compression mode                         : Lossy
Delay relative to video                  : 24 ms
Stream size                              : 535 MiB (14%)
Title                                    : www.alt-torrent.com
Language                                 : Spanish
Service kind                             : Complete Main
Default                                  : Yes
Forced                                   : No

Audio #2
ID                                       : 3
Format                                   : AC-3
Format/Info                              : Audio Coding 3
Commercial name                          : Dolby Digital
Codec ID                                 : A_AC3
Duration                                 : 1 h 56 min
Bit rate mode                            : Constant
Bit rate                                 : 448 kb/s
Channel(s)                               : 6 channels
Channel layout                           : L R C LFE Ls Rs
Sampling rate                            : 48.0 kHz
Frame rate                               : 31.250 FPS (1536 SPF)
Bit depth                                : 16 bits
Compression mode                         : Lossy
Delay relative to video                  : -5 ms
Stream size                              : 374 MiB (10%)
Title                                    : www.alt-torrent.com
Language                                 : English
Service kind                             : Complete Main
Default                                  : No
Forced                                   : No

Text #1
ID                                       : 4
Format                                   : UTF-8
Codec ID                                 : S_TEXT/UTF8
Codec ID/Info                            : UTF-8 Plain Text
Duration                                 : 1 h 8 min
Bit rate                                 : 0 b/s
Count of elements                        : 10
Stream size                              : 276 Bytes (0%)
Title                                    : www.alt-torrent.com
Language                                 : Spanish
Default                                  : Yes
Forced                                   : Yes

Text #2
ID                                       : 5
Format                                   : UTF-8
Codec ID                                 : S_TEXT/UTF8
Codec ID/Info                            : UTF-8 Plain Text
Duration                                 : 1 h 55 min
Bit rate                                 : 53 b/s
Count of elements                        : 1379
Stream size                              : 45.5 KiB (0%)
Title                                    : www.alt-torrent.com
Language                                 : Spanish
Default                                  : No
Forced                                   : No

BitRate : 4 561 kb/s
Audio Latino : AC3 5.1
Audio Inglés : AC3 5.1

* Chrome esta marcando los .torrent como archivos peligrosos,
Descarguenlos con confianza, son los mismos torrent de siempre.

 AMBOS AUDIOS FINALES
+ SUBTITULO SRT LATINO


Calidad Versión Atributo Tamaño link
BR-RIP 720p 2.93 GB spider-man-into-the-spider-verse-720p-2018-br-rip-lat.html
FullHD 1080p 6.73 GB spider-man-into-the-spider-verse-1080p-2018-fullhd-lat.html