5.8/10
110
10.0/10
1

Alt-torrent Películas con audio latino para ver y compartir

Cuatro antihéroes locos huyendo. Su líder es la inocente e ingenua Marnie Marnie, una gata doméstica a la que no se le permite salir de la casa y solo conoce la vida real por televisión.

Título original:
Marnies Welt
Año:
2018
Duración:
92 min
País:
Germany, Belgium
Director:
Christoph Lauenstein, Wolfgang Lauenstein
Escritor:
Christoph Lauenstein (screenplay), Wolfgang Lauenstein (screenplay), Jesper Møller (Co-writer)
Reparto:
Erik Borner, Alexandra Neldel, Axel Prahl
Productora:
Scopas Medien,Grid Animation,Philm CGI,Seven Pictures,Schubert International Filmproduktions,SCOPE Pictures,Lauenstein & Lauenstein,UFA Fiction
Género:
Animación,Aventura,Comedia,Familia
General
Unique ID                                : 295001839200351545967552343194345011639 (0xDDEF499E9D809049AF63EEA87165F9B7)
Complete name                            : Spy Cat (2018) WEBDL 1080p LAT - FllorTV.mkv
Format                                   : Matroska
Format version                           : Version 4
File size                                : 3.46 GiB
Duration                                 : 1 h 28 min
Overall bit rate mode                    : Variable
Overall bit rate                         : 5 575 kb/s
Movie name                               : www.alt-torrent.com
Encoded date                             : UTC 2019-08-13 12:55:04
Writing application                      : mkvmerge v27.0.0 ('Metropolis') 64-bit
Writing library                          : libebml v1.3.6 + libmatroska v1.4.9

Video
ID                                       : 1
Format                                   : AVC
Format/Info                              : Advanced Video Codec
Format profile                           : [email protected]
Format settings                          : CABAC / 2 Ref Frames
Format settings, CABAC                   : Yes
Format settings, ReFrames                : 2 frames
Format settings, GOP                     : M=3, N=50
Codec ID                                 : V_MPEG4/ISO/AVC
Duration                                 : 1 h 28 min
Bit rate mode                            : Variable
Bit rate                                 : 4 741 kb/s
Maximum bit rate                         : 7 200 kb/s
Width                                    : 1 920 pixels
Height                                   : 1 080 pixels
Display aspect ratio                     : 16:9
Frame rate mode                          : Constant
Frame rate                               : 25.000 FPS
Color space                              : YUV
Chroma subsampling                       : 4:2:0
Bit depth                                : 8 bits
Scan type                                : Progressive
Bits/(Pixel*Frame)                       : 0.091
Stream size                              : 2.94 GiB (85%)
Title                                    : www.alt-torrent.com
Language                                 : English
Default                                  : Yes
Forced                                   : No

Audio #1
ID                                       : 2
Format                                   : AC-3
Format/Info                              : Audio Coding 3
Commercial name                          : Dolby Digital
Codec ID                                 : A_AC3
Duration                                 : 1 h 28 min
Bit rate mode                            : Constant
Bit rate                                 : 448 kb/s
Channel(s)                               : 6 channels
Channel layout                           : L R C LFE Ls Rs
Sampling rate                            : 48.0 kHz
Frame rate                               : 31.250 FPS (1536 SPF)
Bit depth                                : 16 bits
Compression mode                         : Lossy
Stream size                              : 284 MiB (8%)
Title                                    : www.alt-torrent.com
Language                                 : Spanish
Service kind                             : Complete Main
Default                                  : Yes
Forced                                   : No

Audio #2
ID                                       : 3
Format                                   : AC-3
Format/Info                              : Audio Coding 3
Commercial name                          : Dolby Digital
Codec ID                                 : A_AC3
Duration                                 : 1 h 28 min
Bit rate mode                            : Constant
Bit rate                                 : 384 kb/s
Channel(s)                               : 6 channels
Channel layout                           : L R C LFE Ls Rs
Sampling rate                            : 48.0 kHz
Frame rate                               : 31.250 FPS (1536 SPF)
Bit depth                                : 16 bits
Compression mode                         : Lossy
Stream size                              : 244 MiB (7%)
Title                                    : www.alt-torrent.com
Language                                 : English
Service kind                             : Complete Main
Default                                  : No
Forced                                   : No


BitRate : Variable
Audio Latino : AC3 5.1
Audio Inglés : AC3 5.1

* Chrome esta marcando los .torrent como archivos peligrosos,
Descarguenlos con confianza, son los mismos torrent de siempre.

 AMBOS AUDIOS FINALES
LATINO AC3 5.1 - INGLES AC3 5.1
SIN SUBTITULOS !!!