4.3/10
6
4.3/10
1

Alt-torrent Películas con audio latino para ver y compartir

Due to financial difficulties, two couple decide to live together for a while. They never imagined that this decision would lead to the biggest crisis between each one of them, after a night that leads them to make an unexpected partner swap. But not everything can be shared, their relationships will never be the same again. Forced to live together, they must resolve their differences and face the consequences of their actions.

Título original:
Swing
Año:
2018
Duración:
N/A
País:
Chile
Director:
Luis Smok
Escritor:
Luis Smok
Reparto:
Elisa Zulueta, Héctor Morales, Daniela Ramírez, Tiago Correa
Productora:
Grita Medios
Género:
Comedia
Format                                   : Matroska
Format version                           : Version 4
File size                                : 3.05 GiB
Duration                                 : 1 h 44 min
Overall bit rate mode                    : Constant
Overall bit rate                         : 4 185 kb/s
Movie name                               : www.alt-torrent.com
Encoded date                             : UTC 2019-03-20 22:48:20
Writing application                      : mkvmerge v27.0.0 ('Metropolis') 64-bit
Writing library                          : libebml v1.3.6 + libmatroska v1.4.9

Video
ID                                       : 1
Format                                   : AVC
Format/Info                              : Advanced Video Codec
Format profile                           : [email protected]
Format settings                          : CABAC / 2 Ref Frames
Format settings, CABAC                   : Yes
Format settings, ReFrames                : 2 frames
Format settings, GOP                     : M=1, N=60
Codec ID                                 : V_MPEG4/ISO/AVC
Duration                                 : 1 h 44 min
Bit rate mode                            : Constant
Bit rate                                 : 4 000 kb/s
Width                                    : 1 920 pixels
Height                                   : 1 080 pixels
Display aspect ratio                     : 16:9
Frame rate mode                          : Constant
Frame rate                               : 23.976 (24000/1001) FPS
Color space                              : YUV
Chroma subsampling                       : 4:2:0
Bit depth                                : 8 bits
Scan type                                : Progressive
Bits/(Pixel*Frame)                       : 0.080
Stream size                              : 2.86 GiB (94%)
Title                                    : www.alt-torrent.com
Default                                  : Yes
Forced                                   : No
Color range                              : Limited
Color primaries                          : BT.709
Transfer characteristics                 : BT.709
Matrix coefficients                      : BT.709

Audio
ID                                       : 2
Format                                   : AC-3
Format/Info                              : Audio Coding 3
Commercial name                          : Dolby Digital
Codec ID                                 : A_AC3
Duration                                 : 1 h 44 min
Bit rate mode                            : Constant
Bit rate                                 : 256 kb/s
Channel(s)                               : 2 channels
Channel layout                           : L R
Sampling rate                            : 48.0 kHz
Frame rate                               : 31.250 FPS (1536 SPF)
Bit depth                                : 16 bits
Compression mode                         : Lossy
Stream size                              : 191 MiB (6%)
Title                                    : www.alt-torrent.com
Language                                 : Spanish
Service kind                             : Complete Main
Default                                  : Yes
Forced                                   : No

BitRate : Constant
Audio Latino : AC3 2.0

* Chrome esta marcando los .torrent como archivos peligrosos,
Descarguenlos con confianza, son los mismos torrent de siempre.

 AUDIO LATINO FINAL


Calidad Versión Atributo Tamaño link
WEBDL 720p 2.01 GB swing-720p-2018-webdl-lat.html