6.2/10
4.534
7.0/10
3

Alt-torrent Películas con audio latino para ver y compartir

Violet (Fanning) es una introvertida adolescente que vive en la Isla de Wight (Inglaterra) y que sueña con convertise en una estrella del Pop para poder así alejarse de tu triste panorama familiar. Con la ayuda de un inesperado mentor, Violet se inscribe en un concurso de canto que pondrá a prueba su integridad, talento y ambición.

Ttulo original:
Teen Spirit
Ao:
2018
Duracin:
93 min
Pas:
UK, USA
Director:
Max Minghella
Escritor:
Max Minghella
Reparto:
Elle Fanning, Agnieszka Grochowska, Archie Madekwe, Zlatko Buric
Productora:
Automatik Entertainment,Blank Tape
Gnero:
Msica,Drama
General
Unique ID                                : 270763819100680604735945890612185350022 (0xCBB336F6FD622855C206B43DF14B3F86)
Complete name                            : Teen Spirit (2018) BRRIP 1080p LAT - FllorTV.mkv
Format                                   : Matroska
Format version                           : Version 4
File size                                : 3.43 GiB
Duration                                 : 1 h 33 min
Overall bit rate                         : 5 246 kb/s
Movie name                               : www.alt-torrent.com
Encoded date                             : UTC 2019-09-08 13:28:04
Writing application                      : mkvmerge v27.0.0 ('Metropolis') 64-bit
Writing library                          : libebml v1.3.6 + libmatroska v1.4.9

Video
ID                                       : 1
Format                                   : AVC
Format/Info                              : Advanced Video Codec
Format profile                           : [email protected]
Format settings                          : CABAC / 5 Ref Frames
Format settings, CABAC                   : Yes
Format settings, ReFrames                : 5 frames
Codec ID                                 : V_MPEG4/ISO/AVC
Duration                                 : 1 h 33 min
Bit rate                                 : 4 604 kb/s
Width                                    : 1 916 pixels
Height                                   : 796 pixels
Display aspect ratio                     : 2.40:1
Frame rate mode                          : Constant
Frame rate                               : 23.976 FPS
Color space                              : YUV
Chroma subsampling                       : 4:2:0
Bit depth                                : 8 bits
Scan type                                : Progressive
Bits/(Pixel*Frame)                       : 0.126
Stream size                              : 3.01 GiB (88%)
Title                                    : www.alt-torrent.com
Default                                  : Yes
Forced                                   : No
Color range                              : Limited
Color primaries                          : BT.709
Transfer characteristics                 : BT.709
Matrix coefficients                      : BT.709

Audio #1
ID                                       : 2
Format                                   : AC-3
Format/Info                              : Audio Coding 3
Commercial name                          : Dolby Digital
Codec ID                                 : A_AC3
Duration                                 : 1 h 33 min
Bit rate mode                            : Constant
Bit rate                                 : 256 kb/s
Channel(s)                               : 2 channels
Channel layout                           : L R
Sampling rate                            : 48.0 kHz
Frame rate                               : 31.250 FPS (1536 SPF)
Bit depth                                : 16 bits
Compression mode                         : Lossy
Stream size                              : 171 MiB (5%)
Title                                    : www.alt-torrent.com
Language                                 : Spanish
Service kind                             : Complete Main
Default                                  : Yes
Forced                                   : No

Audio #2
ID                                       : 3
Format                                   : AC-3
Format/Info                              : Audio Coding 3
Commercial name                          : Dolby Digital
Codec ID                                 : A_AC3
Duration                                 : 1 h 33 min
Bit rate mode                            : Constant
Bit rate                                 : 384 kb/s
Channel(s)                               : 6 channels
Channel layout                           : L R C LFE Ls Rs
Sampling rate                            : 48.0 kHz
Frame rate                               : 31.250 FPS (1536 SPF)
Bit depth                                : 16 bits
Compression mode                         : Lossy
Stream size                              : 257 MiB (7%)
Title                                    : www.alt-torrent.com
Language                                 : English
Service kind                             : Complete Main
Default                                  : No
Forced                                   : No

Text
ID                                       : 4
Format                                   : UTF-8
Codec ID                                 : S_TEXT/UTF8
Codec ID/Info                            : UTF-8 Plain Text
Duration                                 : 1 h 32 min
Bit rate                                 : 42 b/s
Count of elements                        : 1101
Stream size                              : 28.9 KiB (0%)
Title                                    : www.alt-torrent.com
Language                                 : Spanish
Default                                  : Yes
Forced                                   : No


BitRate : 5 246 kb/s
Audio Latino : LINE 2.0
Audio Inglés : LINE 2.0
* LINE es audio grabado de cine. Si no te gusta esta calidad,
No reclames, espera a que salga un audio de mejor calidad

* Chrome esta marcando los .torrent como archivos peligrosos,
Descarguenlos con confianza, son los mismos torrent de siempre.

 AUDIO LATINO AC3 2.0 LINE
AUDIO INGLES AC3 5.1FINAL
+ SUBTITULO SRT LATINO