6.3/10
3.117
6.0/10
1

Alt-torrent Películas con audio latino para ver y compartir

Posguerra en Alemania, año 1946. Rachael Morgan (Keira Knightley) aterriza en las ruinas de Hamburgo en pleno invierno para reunirse con su marido, Lewis (Jason Clarke), un coronel británico que ha recibido la misión de reconstruir la ciudad destruida. Pero cuando van a mudarse a su nueva casa, Rachael descubre con asombro que Lewis ha tomado una decisión inesperada: compartirán la enorme casa con sus antiguos propietarios, un viudo alemán (Alexander Skarsgård) y su atormentada hija. En esta atmósfera cargada, la hostilidad y el dolor dan paso a la pasión y la traición.

Título original:
The Aftermath
Año:
2019
Duración:
108 min
País:
UK, Germany, USA
Director:
James Kent
Escritor:
Joe Shrapnel, Anna Waterhouse, Rhidian Brook, Rhidian Brook (novel)
Reparto:
Keira Knightley, Ned Wills, Pandora Colin, Jason Clarke
Productora:
Scott Free Productions,Amusement Park Films,Fox Searchlight Pictures
Género:
Drama,Romance,Bélica
Format                                   : Matroska
Format version                           : Version 4
File size                                : 4.41 GiB
Duration                                 : 1 h 49 min
Overall bit rate                         : 5 775 kb/s
Movie name                               : www.alt-torrent.com
Encoded date                             : UTC 2019-06-12 00:12:37
Writing application                      : mkvmerge v27.0.0 ('Metropolis') 64-bit
Writing library                          : libebml v1.3.6 + libmatroska v1.4.9

Video
ID                                       : 1
Format                                   : AVC
Format/Info                              : Advanced Video Codec
Format profile                           : [email protected]
Format settings                          : CABAC / 4 Ref Frames
Format settings, CABAC                   : Yes
Format settings, ReFrames                : 4 frames
Codec ID                                 : V_MPEG4/ISO/AVC
Duration                                 : 1 h 49 min
Bit rate                                 : 5 136 kb/s
Width                                    : 1 920 pixels
Height                                   : 1 038 pixels
Display aspect ratio                     : 1.85:1
Frame rate mode                          : Constant
Frame rate                               : 23.976 FPS
Color space                              : YUV
Chroma subsampling                       : 4:2:0
Bit depth                                : 8 bits
Scan type                                : Progressive
Bits/(Pixel*Frame)                       : 0.107
Stream size                              : 3.92 GiB (89%)
Title                                    : www.alt-torrent.com
Language                                 : English
Default                                  : Yes
Forced                                   : No
Color range                              : Limited
Color primaries                          : BT.709
Transfer characteristics                 : BT.709
Matrix coefficients                      : BT.709

Audio #1
ID                                       : 2
Format                                   : AC-3
Format/Info                              : Audio Coding 3
Commercial name                          : Dolby Digital
Codec ID                                 : A_AC3
Duration                                 : 1 h 48 min
Bit rate mode                            : Constant
Bit rate                                 : 256 kb/s
Channel(s)                               : 2 channels
Channel layout                           : L R
Sampling rate                            : 48.0 kHz
Frame rate                               : 31.250 FPS (1536 SPF)
Bit depth                                : 16 bits
Compression mode                         : Lossy
Stream size                              : 199 MiB (4%)
Title                                    : www.alt-torrent.com
Language                                 : Spanish
Service kind                             : Complete Main
Default                                  : Yes
Forced                                   : No

Audio #2
ID                                       : 3
Format                                   : AC-3
Format/Info                              : Audio Coding 3
Commercial name                          : Dolby Digital
Codec ID                                 : A_AC3
Duration                                 : 1 h 48 min
Bit rate mode                            : Constant
Bit rate                                 : 384 kb/s
Channel(s)                               : 6 channels
Channel layout                           : L R C LFE Ls Rs
Sampling rate                            : 48.0 kHz
Frame rate                               : 31.250 FPS (1536 SPF)
Bit depth                                : 16 bits
Compression mode                         : Lossy
Stream size                              : 298 MiB (7%)
Title                                    : www.alt-torrent.com
Language                                 : English
Service kind                             : Complete Main
Default                                  : No
Forced                                   : No

Text #1
ID                                       : 4
Format                                   : UTF-8
Codec ID                                 : S_TEXT/UTF8
Codec ID/Info                            : UTF-8 Plain Text
Duration                                 : 1 h 35 min
Bit rate                                 : 2 b/s
Count of elements                        : 62
Stream size                              : 1.41 KiB (0%)
Title                                    : www.alt-torrent.com
Language                                 : Spanish
Default                                  : Yes
Forced                                   : No

Text #2
ID                                       : 5
Format                                   : UTF-8
Codec ID                                 : S_TEXT/UTF8
Codec ID/Info                            : UTF-8 Plain Text
Duration                                 : 1 h 43 min
Bit rate                                 : 29 b/s
Count of elements                        : 799
Stream size                              : 22.2 KiB (0%)
Title                                    : www.alt-torrent.com
Language                                 : Spanish
Default                                  : No
Forced                                   : No

BitRate : 5 775 kb/s
Audio Latino : AC3 2.0
Audio Inglés : AC3 2.0

* Chrome esta marcando los .torrent como archivos peligrosos,
Descarguenlos con confianza, son los mismos torrent de siempre.

 AMBOS AUDIOS FINALES
LATINO AC3 2.0 - INGLES AC3 5.1
+ SUBTITULO SRT LATINO


Calidad Versión Atributo Tamaño link
WEBDL 720p 3.59 GB the-aftermath-720p-2019-webdl-lat.html