6.7/10
89.756
9.3/10
31

Alt-torrent Películas con audio latino para ver y compartir

Robert McCall (Denzel Washington) garantiza una justicia inquebrantable para los explotados y oprimidos, pero ¿cuánto de lejos llegará cuando se trate de alguien a quien ama? Secuela de The Equalizer (El protector) (2014).

Título original:
The Equalizer 2
Año:
2018
Duración:
121 min
País:
USA
Director:
Antoine Fuqua
Escritor:
Richard Wenk, Michael Sloan (based on the television series created by), Richard Lindheim (based on the television series created by)
Reparto:
Denzel Washington, Pedro Pascal, Ashton Sanders, Orson Bean
Productora:
Mace Neufeld Productions,Columbia Pictures,Lonetree Entertainment,Fuqua Films,Escape Artists,Sony Pictures
Género:
Suspense,Acción,Crimen
General
Unique ID                                : 207533487842625439419513570489249143793 (0x9C217EF154D13B9FAF9572DA30DD9BF1)
Complete name                            : /home/zeiz/files/The Equalizer 2 (2018) 1080p LAT - CharlX/The Equalizer 2 (2018) 1080p LAT - CharlX.mkv
Format                                   : Matroska
Format version                           : Version 4 / Version 2
File size                                : 3.71 GiB
Duration                                 : 2 h 0 min
Overall bit rate                         : 4 397 kb/s
Movie name                               : The Equalizer 2 (2018) 1080p LAT - CharlX
Encoded date                             : UTC 2018-12-06 00:28:17 / UTC 2018-11-12T22:03:57Z
Writing application                      : mkvmerge v9.9.0 ('Pick Up') 64bit
Writing library                          : libebml v1.3.4 + libmatroska v1.4.5 / Lavf57.7.2
Attachments                              : The Equalizer 2 (2018) 1080p LAT - CharlX.jpg
Uploader                                 : CharlX
Web                                      : www.alt-torrent.com

Video
ID                                       : 1
Format                                   : AVC
Format/Info                              : Advanced Video Codec
Format profile                           : [email protected]
Format settings                          : CABAC / 5 Ref Frames
Format settings, CABAC                   : Yes
Format settings, ReFrames                : 5 frames
Codec ID                                 : V_MPEG4/ISO/AVC
Duration                                 : 2 h 0 min
Bit rate                                 : 3 500 kb/s
Width                                    : 1 920 pixels
Height                                   : 804 pixels
Display aspect ratio                     : 2.40:1
Frame rate mode                          : Constant
Frame rate                               : 23.976 (24000/1001) FPS
Color space                              : YUV
Chroma subsampling                       : 4:2:0
Bit depth                                : 8 bits
Scan type                                : Progressive
Bits/(Pixel*Frame)                       : 0.095
Stream size                              : 2.88 GiB (78%)
Title                                    : The Equalizer 2 (2018) 1080p LAT - CharlX
Writing library                          : x264 core 155 r2893 b00bcaf
Encoding settings                        : cabac=1 / ref=5 / deblock=1:0:0 / analyse=0x3:0x133 / me=umh / subme=9 / psy=1 / psy_rd=1.00:0.00 / mixed_ref=1 / me_range=16 / chroma_me=1 / trellis=2 / 8x8dct=1 / cqm=0 / deadzone=21,11 / fast_pskip=1 / chroma_qp_offset=-2 / threads=25 / lookahead_threads=2 / sliced_threads=0 / nr=0 / decimate=1 / interlaced=0 / bluray_compat=0 / constrained_intra=0 / bframes=3 / b_pyramid=2 / b_adapt=2 / b_bias=0 / direct=3 / weightb=1 / open_gop=0 / weightp=2 / keyint=240 / keyint_min=24 / scenecut=40 / intra_refresh=0 / rc_lookahead=60 / rc=2pass / mbtree=1 / bitrate=3500 / ratetol=1.0 / qcomp=0.60 / qpmin=0 / qpmax=69 / qpstep=4 / cplxblur=20.0 / qblur=0.5 / vbv_maxrate=62500 / vbv_bufsize=78125 / nal_hrd=none / filler=0 / ip_ratio=1.40 / aq=1:1.00
Language                                 : English
Default                                  : Yes
Forced                                   : No
Color range                              : Limited
Color primaries                          : BT.709
Transfer characteristics                 : BT.709
Matrix coefficients                      : BT.709
Statistics Tags Issue                    : mkvmerge v9.9.0 ('Pick Up') 64bit 2018-12-06 00:28:17 / mkvmerge v9.9.0 ('Pick Up') 64bit 2018-12-06 00:28:17 / UTC 2018-11-12T22:03:57Z
FromStats_BitRate                        : 3498581
FromStats_Duration                       : 02:00:57.250000000
FromStats_FrameCount                     : 174000
FromStats_StreamSize                     : 3173760236

Audio #1
ID                                       : 2
Format                                   : AC-3
Format/Info                              : Audio Coding 3
Codec ID                                 : A_AC3
Duration                                 : 2 h 0 min
Bit rate mode                            : Constant
Bit rate                                 : 448 kb/s
Channel(s)                               : 6 channels
Channel positions                        : Front: L C R, Side: L R, LFE
Sampling rate                            : 48.0 kHz
Frame rate                               : 31.250 FPS (1536 SPF)
Bit depth                                : 16 bits
Compression mode                         : Lossy
Delay relative to video                  : -5 ms
Stream size                              : 388 MiB (10%)
Title                                    : Latino
Language                                 : Latin
Service kind                             : Complete Main
Default                                  : Yes
Forced                                   : Yes
Statistics Tags Issue                    : mkvmerge v9.9.0 ('Pick Up') 64bit 2018-12-06 00:28:17 / mkvmerge v9.9.0 ('Pick Up') 64bit 2018-12-06 00:28:17 / UTC 2018-11-12T22:03:57Z
FromStats_BitRate                        : 448000
FromStats_Duration                       : 02:00:57.312000000
FromStats_FrameCount                     : 226791
FromStats_StreamSize                     : 406409472

Audio #2
ID                                       : 3
Format                                   : AC-3
Format/Info                              : Audio Coding 3
Codec ID                                 : A_AC3
Duration                                 : 2 h 0 min
Bit rate mode                            : Constant
Bit rate                                 : 448 kb/s
Channel(s)                               : 6 channels
Channel positions                        : Front: L C R, Side: L R, LFE
Sampling rate                            : 48.0 kHz
Frame rate                               : 31.250 FPS (1536 SPF)
Bit depth                                : 16 bits
Compression mode                         : Lossy
Stream size                              : 388 MiB (10%)
Title                                    : Inglés
Language                                 : English
Service kind                             : Complete Main
Default                                  : No
Forced                                   : No
Statistics Tags Issue                    : mkvmerge v9.9.0 ('Pick Up') 64bit 2018-12-06 00:28:17 / mkvmerge v9.9.0 ('Pick Up') 64bit 2018-12-06 00:28:17 / UTC 2018-11-12T22:03:57Z
FromStats_BitRate                        : 448000
FromStats_Duration                       : 02:00:57.248000000
FromStats_FrameCount                     : 226789
FromStats_StreamSize                     : 406405888

Text #1
ID                                       : 4
Format                                   : UTF-8
Codec ID                                 : S_TEXT/UTF8
Codec ID/Info                            : UTF-8 Plain Text
Title                                    : www.alt-torrent.com
Language                                 : Latin
Default                                  : Yes
Forced                                   : Yes
Statistics Tags Issue                    : mkvmerge v9.9.0 ('Pick Up') 64bit 2018-12-06 00:28:17 / mkvmerge v9.9.0 ('Pick Up') 64bit 2018-12-06 00:28:17 / UTC 2018-11-12T22:03:57Z
FromStats_BitRate                        : 1
FromStats_Duration                       : 01:53:44.860000000
FromStats_FrameCount                     : 44
FromStats_StreamSize                     : 1007

Text #2
ID                                       : 5
Format                                   : UTF-8
Codec ID                                 : S_TEXT/UTF8
Codec ID/Info                            : UTF-8 Plain Text
Title                                    : Latino
Language                                 : Latin
Default                                  : No
Forced                                   : No
Statistics Tags Issue                    : mkvmerge v9.9.0 ('Pick Up') 64bit 2018-12-06 00:28:17 / mkvmerge v9.9.0 ('Pick Up') 64bit 2018-12-06 00:28:17 / UTC 2018-11-12T22:03:57Z
FromStats_BitRate                        : 36
FromStats_Duration                       : 01:53:54.084000000
FromStats_FrameCount                     : 1022
FromStats_StreamSize                     : 30767

Menu
00:00:00.000                             : :Chapter 1
00:01:31.592                             : :Chapter 2
00:01:58.869                             : :Chapter 3
00:04:54.169                             : :Chapter 4
00:05:33.083                             : :Chapter 5
00:05:51.643                             : :Chapter 6
00:06:23.884                             : :Chapter 7
00:06:55.874                             : :Chapter 8
00:07:06.593                             : :Chapter 9
00:07:35.622                             : :Chapter 10
00:07:53.765                             : :Chapter 11
00:08:09.698                             : :Chapter 12
00:08:22.293                             : :Chapter 13
00:08:39.144                             : :Chapter 14
00:09:09.007                             : :Chapter 15
00:09:44.417                             : :Chapter 16
00:11:32.442                             : :Chapter 17
00:11:41.492                             : :Chapter 18
00:12:06.059                             : :Chapter 19
00:13:03.950                             : :Chapter 20
00:15:24.549                             : :Chapter 21
00:15:58.166                             : :Chapter 22
00:16:19.437                             : :Chapter 23
00:16:54.180                             : :Chapter 24
00:17:58.578                             : :Chapter 25
00:19:34.048                             : :Chapter 26
00:20:02.785                             : :Chapter 27
00:20:55.713                             : :Chapter 28
00:23:04.425                             : :Chapter 29
00:23:50.596                             : :Chapter 30
00:23:59.897                             : :Chapter 31
00:24:14.036                             : :Chapter 32
00:24:20.626                             : :Chapter 33
00:25:47.755                             : :Chapter 34
00:28:22.576                             : :Chapter 35
00:28:39.176                             : :Chapter 36
00:31:50.075                             : :Chapter 37
00:32:04.840                             : :Chapter 38
00:32:13.932                             : :Chapter 39
00:34:10.799                             : :Chapter 40
00:35:14.279                             : :Chapter 41
00:36:09.626                             : :Chapter 42
01:31:39.703                             : :Chapter 43
01:32:20.702                             : :Chapter 44
01:32:40.764                             : :Chapter 45
01:33:20.053                             : :Chapter 46
01:34:56.900                             : :Chapter 47
01:41:28.124                             : :Chapter 48
01:41:36.257                             : :Chapter 49
01:42:25.056                             : :Chapter 50
01:46:59.163                             : :Chapter 51

BitRate : 4 397 kb/s
Audio Latino : AC3 5.1
Audio Inglés : AC3 5.1

* Chrome esta marcando los .torrent como archivos peligrosos,
Descarguenlos con confianza, son los mismos torrent de siempre.



Calidad Versión Atributo Tamaño link
BR-RIP 1080p [H.265] 1.32 GB the-equalizer-2-h265-2018-1080p-lat.html
BR-RIP 1080p [60fps] 7.89 GB the-equalizer-2-60fps-2018-1080p-lat.html