6.7/10
86.418
8.7/10
20

Alt-torrent Películas con audio latino para ver y compartir

Robert McCall (Denzel Washington) garantiza una justicia inquebrantable para los explotados y oprimidos, pero ¿cuánto de lejos llegará cuando se trate de alguien a quien ama? Secuela de The Equalizer (El protector) (2014).

Título original:
The Equalizer 2
Año:
2018
Duración:
121 min
País:
USA
Director:
Antoine Fuqua
Escritor:
Richard Wenk, Michael Sloan (based on the television series created by), Richard Lindheim (based on the television series created by)
Reparto:
Denzel Washington, Pedro Pascal, Ashton Sanders, Orson Bean
Productora:
Mace Neufeld Productions,Columbia Pictures,Lonetree Entertainment,Fuqua Films,Escape Artists,Sony Pictures,ZHIV Productions
Género:
Suspense,Acción,Crimen
The Equalizer 2 (2018) 1080p [60fps] LAT - FllorTV

Format                      : Matroska
Format version              : Version 4 / Version 2
File size                   : 7.89 GiB
Duration                    : 2 h 0 min
Overall bit rate            : 9 337 kb/s
Movie name                  : www.alt-torrent.com / - By FllorTV
Encoded date                : UTC 2018-12-29 08:00:05
Writing application         : mkvmerge v28.2.0 ('The Awakening') 64-bit
Writing library             : libebml v1.3.6 + libmatroska v1.4.9

Video
ID                          : 1
Format                      : AVC
Format/Info                 : Advanced Video Codec
Format profile              : High@L4.2
Format settings             : CABAC / 4 Ref Frames
Format settings, CABAC      : Yes
Format settings, ReFrames   : 4 frames
Codec ID                    : V_MPEG4/ISO/AVC
Duration                    : 2 h 0 min
Bit rate                    : 8 565 kb/s
Width                       : 1 920 pixels
Height                      : 800 pixels
Display aspect ratio        : 2.25:1
Original display aspect rat : 2.40:1
Frame rate mode             : Constant
Frame rate                  : 59.940 (60000/1001) FPS
Color space                 : YUV
Chroma subsampling          : 4:2:0
Bit depth                   : 8 bits
Scan type                   : Progressive
Bits/(Pixel*Frame)          : 0.093
Stream size                 : 7.24 GiB (92%)
Title                       : www.alt-torrent.com / - By FllorTV
Writing library             : x264 core 148 r2638 7599210
Encoding settings           : cabac=1 / ref=3 / deblock=1:0:0 / analyse=0x3:0x113 / me=hex / subme=7 / psy=1 / psy_rd=1.00:0.00 / mixed_ref=1 / me_range=16 / chroma_me=1 / trellis=1 / 8x8dct=1 / cqm=0 / deadzone=21,11 / fast_pskip=1 / chroma_qp_offset=-2 / threads=6 / lookahead_threads=1 / sliced_threads=0 / nr=0 / decimate=1 / interlaced=0 / bluray_compat=0 / constrained_intra=0 / bframes=3 / b_pyramid=2 / b_adapt=1 / b_bias=0 / direct=1 / weightb=1 / open_gop=0 / weightp=2 / keyint=599 / keyint_min=59 / scenecut=40 / intra_refresh=0 / rc_lookahead=40 / rc=crf / mbtree=1 / crf=16.0 / qcomp=0.60 / qpmin=10 / qpmax=51 / qpstep=4 / ip_ratio=1.40 / aq=1:1.00
Default                     : Yes
Forced                      : No

Audio #1
ID                          : 2
Format                      : AC-3
Format/Info                 : Audio Coding 3
Codec ID                    : A_AC3
Duration                    : 2 h 0 min
Bit rate mode               : Constant
Bit rate                    : 384 kb/s
Channel(s)                  : 6 channels
Channel positions           : Front: L C R, Side: L R, LFE
Sampling rate               : 48.0 kHz
Frame rate                  : 31.250 FPS (1536 SPF)
Bit depth                   : 16 bits
Compression mode            : Lossy
Stream size                 : 332 MiB (4%)
Title                       : Latino
Language                    : Spanish
Service kind                : Complete Main
Default                     : Yes
Forced                      : No

Audio #2
ID                          : 3
Format                      : AC-3
Format/Info                 : Audio Coding 3
Codec ID                    : A_AC3
Duration                    : 2 h 0 min
Bit rate mode               : Constant
Bit rate                    : 384 kb/s
Channel(s)                  : 6 channels
Channel positions           : Front: L C R, Side: L R, LFE
Sampling rate               : 48.0 kHz
Frame rate                  : 31.250 FPS (1536 SPF)
Bit depth                   : 16 bits
Compression mode            : Lossy
Stream size                 : 332 MiB (4%)
Title                       : Ingles
Language                    : English
Service kind                : Complete Main
Default                     : No
Forced                      : No

Text #1
ID                          : 4
Format                      : UTF-8
Codec ID                    : S_TEXT/UTF8
Codec ID/Info               : UTF-8 Plain Text
Duration                    : 5 s 0 ms
Bit rate                    : 49 b/s
Count of elements           : 1
Stream size                 : 31.0 Bytes (0%)
Title                       : Forzados
Language                    : Spanish
Default                     : Yes
Forced                      : Yes

Text #2
ID                          : 5
Format                      : UTF-8
Codec ID                    : S_TEXT/UTF8
Codec ID/Info               : UTF-8 Plain Text
Duration                    : 1 h 54 min
Bit rate                    : 35 b/s
Count of elements           : 1023
Stream size                 : 30.1 KiB (0%)
Title                       : Completos
Language                    : Spanish
Default                     : No
Forced                      : No


BitRate : 9 337 kb/s
Audio Latino : AC3 5.1
Audio Inglés : AC3 5.1

* Chrome esta marcando los .torrent como archivos peligrosos,
Descarguenlos con confianza, son los mismos torrent de siempre.



Calidad Versión Atributo Tamaño link
BR-RIP 1080p 3.72 GB the-equalizer-2-2018-1080p-lat.html
BR-RIP 1080p [H.265] 1.32 GB the-equalizer-2-h265-2018-1080p-lat.html