4.2/10
2.040
5.5/10
2

Alt-torrent Películas para ver y compartir

Following the passing of his father, Aaron Hammond returns to his hometown to help his devastated mother and to confront his past demons. Shifting through his father?s belongings, Aaron comes upon a mysterious item that is far more than it seems.

Título original:
The Final Wish
Año:
2018
Duración:
95 min
País:
USA
Director:
Timothy Woodward Jr.
Escritor:
Jeffrey Reddick (screenplay), William Halfon (screenplay), Jonathan Doyle (screenplay), Jeffrey Reddick (story)
Reparto:
Lin Shaye, Michael Welch, Melissa Bolona, Spencer Locke
Productora:
BondIt,Global Renaissance Entertainment Group
Género:
Terror
The Final Wish (2018) WEBDL 1080p ENG - FllorTV

Format                      : Matroska
Format version              : Version 4 / Version 2
File size                   : 3.34 GiB
Duration                    : 1 h 35 min
Overall bit rate            : 4 988 kb/s
Movie name                  : www.alt-torrent.com / - By FllorTV
Encoded date                : UTC 2019-02-11 09:30:44
Writing application         : mkvmerge v31.0.0 ('Dolores In A Shoestand') 64-bit
Writing library             : libebml v1.3.6 + libmatroska v1.4.9

Video
ID                          : 1
Format                      : AVC
Format/Info                 : Advanced Video Codec
Format profile              : [email protected]
Format settings             : CABAC / 5 Ref Frames
Format settings, CABAC      : Yes
Format settings, RefFrames  : 5 frames
Codec ID                    : V_MPEG4/ISO/AVC
Duration                    : 1 h 35 min
Bit rate                    : 4 603 kb/s
Width                       : 1 916 pixels
Height                      : 800 pixels
Display aspect ratio        : 2.40:1
Frame rate mode             : Constant
Frame rate                  : 23.976 (23976/1000) FPS
Color space                 : YUV
Chroma subsampling          : 4:2:0
Bit depth                   : 8 bits
Scan type                   : Progressive
Bits/(Pixel*Frame)          : 0.125
Stream size                 : 3.08 GiB (92%)
Title                       : www.alt-torrent.com / - By FllorTV
Language                    : English
Default                     : Yes
Forced                      : No
Color range                 : Limited
Color primaries             : BT.709
Transfer characteristics    : BT.709
Matrix coefficients         : BT.709

Audio
ID                          : 2
Format                      : AC-3
Format/Info                 : Audio Coding 3
Format settings, Endianness : Big
Codec ID                    : A_AC3
Duration                    : 1 h 35 min
Bit rate mode               : Constant
Bit rate                    : 384 kb/s
Channel(s)                  : 6 channels
Channel positions           : Front: L C R, Side: L R, LFE
Sampling rate               : 48.0 kHz
Frame rate                  : 31.250 FPS (1536 SPF)
Bit depth                   : 16 bits
Compression mode            : Lossy
Stream size                 : 263 MiB (8%)
Title                       : Ingles
Language                    : English
Service kind                : Complete Main
Default                     : Yes
Forced                      : No

Text
ID                          : 3
Format                      : UTF-8
Codec ID                    : S_TEXT/UTF8
Codec ID/Info               : UTF-8 Plain Text
Duration                    : 1 h 30 min
Bit rate                    : 40 b/s
Count of elements           : 926
Stream size                 : 26.6 KiB (0%)
Title                       : Latino
Language                    : Spanish
Default                     : Yes
Forced                      : Yes

Menu
00:00:00.000                : en:Chapter 01
00:11:04.164                : en:Chapter 02
00:27:40.118                : en:Chapter 03
00:38:34.772                : en:Chapter 04
00:51:29.630                : en:Chapter 05
01:03:47.034                : en:Chapter 06
01:18:30.667                : en:Chapter 07
01:29:35.748                : en:Chapter 08


BitRate : 4 988 kb/s
Audio Inglés : AC3 5.1

* Chrome esta marcando los .torrent como archivos peligrosos,
Descarguenlos con confianza, son los mismos torrent de siempre.