6.2/10
6.999
7.0/10
2

Alt-torrent Películas con audio latino para ver y compartir

Narra la campaña presidencial del senador estadounidense Gary Hart, que tuvo lugar en 1988, momento en el que los medios de comunicación difundieron un escandaloso romance extramatrimonial del político. Tras perder la candidatura democrática contra Walter Mondale en 1984, Gary Hart (Jackman) hizo un regreso triunfal a la candidatura a Presidente en 1987, en un momento en que su partido estaba desesperado por arrebatarle el poder a los republicanos después de dos mandatos de Reagan. Hart tenía todo para él: inteligencia, carisma y experiencia como abogado, director de campaña y senador, sin mencionar a una Primera Dama ideal en su adorable esposa Lee (Farmiga). Pero todo comienza a desmoronarse cuando corre la voz de que Hart es un mujeriego, un rumor seguido rápidamente por informes de que ha tenido una aventura con Donna Rice (Sara Paxton).

Título original:
The Front Runner
Año:
2018
Duración:
113 min
País:
USA
Director:
Jason Reitman
Escritor:
Matt Bai, Jay Carson, Jason Reitman, Matt Bai (based on the book "All The Truth Is Out" by)
Reparto:
Hugh Jackman, Vera Farmiga, J.K. Simmons, Mark O'Brien
Productora:
Bron Studios,Right of Way Films,Creative Wealth Media Finance
Género:
Drama,Comedia
Format                                   : Matroska
Format version                           : Version 4
File size                                : 2.21 GiB
Duration                                 : 1 h 53 min
Overall bit rate mode                    : Variable
Overall bit rate                         : 2 784 kb/s
Movie name                               : www.alt-torrent.com - By FllorTv
Encoded date                             : UTC 2019-01-31 15:41:07
Writing application                      : mkvmerge v27.0.0 ('Metropolis') 64-bit
Writing library                          : libebml v1.3.6 + libmatroska v1.4.9

Video
ID                                       : 1
Format                                   : MPEG Video
Format version                           : Version 2
Format profile                           : [email protected]
Format settings                          : CustomMatrix / BVOP
Format settings, BVOP                    : Yes
Format settings, Matrix                  : Custom
Format settings, GOP                     : Variable
Codec ID                                 : V_MPEG2
Codec ID/Info                            : MPEG 1 or 2 Video
Duration                                 : 1 h 53 min
Bit rate mode                            : Variable
Bit rate                                 : 1 945 kb/s
Maximum bit rate                         : 7 000 kb/s
Width                                    : 720 pixels
Height                                   : 480 pixels
Display aspect ratio                     : 16:9
Frame rate mode                          : Variable
Frame rate                               : 23.976 FPS
Color space                              : YUV
Chroma subsampling                       : 4:2:0
Bit depth                                : 8 bits
Scan type                                : Progressive
Scan order                               : 2:3 Pulldown
Compression mode                         : Lossy
Bits/(Pixel*Frame)                       : 0.235
Time code of first frame                 : 00:59:59;00
Time code source                         : Group of pictures header
GOP, Open/Closed                         : Open
GOP, Open/Closed of first frame          : Closed
Stream size                              : 1.54 GiB (70%)
Title                                    : www.alt-torrent.com
Default                                  : Yes
Forced                                   : No

Audio #1
ID                                       : 2
Format                                   : AC-3
Format/Info                              : Audio Coding 3
Commercial name                          : Dolby Digital
Codec ID                                 : A_AC3
Duration                                 : 1 h 53 min
Bit rate mode                            : Constant
Bit rate                                 : 384 kb/s
Channel(s)                               : 6 channels
Channel layout                           : L R C LFE Ls Rs
Sampling rate                            : 48.0 kHz
Frame rate                               : 31.250 FPS (1536 SPF)
Bit depth                                : 16 bits
Compression mode                         : Lossy
Stream size                              : 312 MiB (14%)
Title                                    : latino
Language                                 : Spanish
Service kind                             : Complete Main
Default                                  : Yes
Forced                                   : No

Audio #2
ID                                       : 3
Format                                   : AC-3
Format/Info                              : Audio Coding 3
Commercial name                          : Dolby Digital
Codec ID                                 : A_AC3
Duration                                 : 1 h 53 min
Bit rate mode                            : Constant
Bit rate                                 : 448 kb/s
Channel(s)                               : 6 channels
Channel layout                           : L R C LFE Ls Rs
Sampling rate                            : 48.0 kHz
Frame rate                               : 31.250 FPS (1536 SPF)
Bit depth                                : 16 bits
Compression mode                         : Lossy
Stream size                              : 364 MiB (16%)
Title                                    : ingles
Language                                 : English
Service kind                             : Complete Main
Default                                  : No
Forced                                   : No

Text #1
ID                                       : 4
Format                                   : UTF-8
Codec ID                                 : S_TEXT/UTF8
Codec ID/Info                            : UTF-8 Plain Text
Duration                                 : 1 h 44 min
Bit rate                                 : 72 b/s
Count of elements                        : 1669
Stream size                              : 55.6 KiB (0%)
Title                                    : completos
Language                                 : Spanish
Default                                  : No
Forced                                   : No

Text #2
ID                                       : 5
Format                                   : UTF-8
Codec ID                                 : S_TEXT/UTF8
Codec ID/Info                            : UTF-8 Plain Text
Duration                                 : 5 s 0 ms
Bit rate                                 : 49 b/s
Count of elements                        : 1
Stream size                              : 31.0 Bytes (0%)
Title                                    : forzados
Language                                 : Spanish
Default                                  : Yes
Forced                                   : No

BitRate : Variable
Audio Latino : AC3 2.0
Audio Inglés : AC3 2.0

* Chrome esta marcando los .torrent como archivos peligrosos,
Descarguenlos con confianza, son los mismos torrent de siempre.



Calidad Versión Atributo Tamaño link
BR-RIP 1080p 4.56 GB the-front-runner-1080p-2018-br-rip-lat.html
BR-RIP 720p 2.6 GB the-front-runner-720p-2018-br-rip-lat.html