6.5/10
1.959
6.5/10
1

Alt-torrent Películas con audio latino para ver y compartir

Narra la campaña presidencial del senador estadounidense Gary Hart, que tuvo lugar en 1988, momento en el que los medios de comunicación difundieron un escandaloso romance extramatrimonial del político. Tras perder la candidatura democrática contra Walter Mondale en 1984, Gary Hart (Jackman) hizo un regreso triunfal a la candidatura a Presidente en 1987, en un momento en que su partido estaba desesperado por arrebatarle el poder a los republicanos después de dos mandatos de Reagan. Hart tenía todo para él: inteligencia, carisma y experiencia como abogado, director de campaña y senador, sin mencionar a una Primera Dama ideal en su adorable esposa Lee (Farmiga). Pero todo comienza a desmoronarse cuando corre la voz de que Hart es un mujeriego, un rumor seguido rápidamente por informes de que ha tenido una aventura con Donna Rice (Sara Paxton).

Título original:
The Front Runner
Año:
2018
Duración:
113 min
País:
USA
Director:
Jason Reitman
Escritor:
Matt Bai, Jay Carson, Jason Reitman, Matt Bai (based on the book "All The Truth Is Out" by)
Reparto:
Hugh Jackman, Vera Farmiga, J.K. Simmons, Mark O'Brien
Productora:
Bron Studios,Right of Way Films,Creative Wealth Media Finance
Género:
Drama,Comedia
Format                                   : Matroska
Format version                           : Version 4
File size                                : 2.59 GiB
Duration                                 : 1 h 53 min
Overall bit rate                         : 3 268 kb/s
Movie name                               : www.alt-torrent.com - By FllorTV
Encoded date                             : UTC 2019-02-07 06:11:28
Writing application                      : mkvmerge v27.0.0 ('Metropolis') 64-bit
Writing library                          : libebml v1.3.6 + libmatroska v1.4.9

Video
ID                                       : 1
Format                                   : AVC
Format/Info                              : Advanced Video Codec
Format profile                           : High@L4.1
Format settings                          : CABAC / 2 Ref Frames
Format settings, CABAC                   : Yes
Format settings, ReFrames                : 2 frames
Codec ID                                 : V_MPEG4/ISO/AVC
Duration                                 : 1 h 53 min
Bit rate                                 : 2 500 kb/s
Width                                    : 1 280 pixels
Height                                   : 694 pixels
Display aspect ratio                     : 1.85:1
Frame rate mode                          : Constant
Frame rate                               : 23.976 (24000/1001) FPS
Color space                              : YUV
Chroma subsampling                       : 4:2:0
Bit depth                                : 8 bits
Scan type                                : Progressive
Bits/(Pixel*Frame)                       : 0.117
Stream size                              : 1.98 GiB (76%)
Title                                    : www.alt-torrent.com
Writing library                          : x264 core 155 r2901
Encoding settings                        : cabac=1 / ref=2 / deblock=1:0:0 / analyse=0x3:0x133 / me=hex / subme=7 / psy=1 / psy_rd=1.00:0.00 / mixed_ref=0 / me_range=16 / chroma_me=1 / trellis=1 / 8x8dct=1 / cqm=0 / deadzone=21,11 / fast_pskip=1 / chroma_qp_offset=-2 / threads=22 / lookahead_threads=3 / sliced_threads=0 / nr=0 / decimate=1 / interlaced=0 / bluray_compat=0 / constrained_intra=0 / bframes=3 / b_pyramid=0 / b_adapt=1 / b_bias=0 / direct=3 / weightb=1 / open_gop=0 / weightp=2 / keyint=239 / keyint_min=23 / scenecut=40 / intra_refresh=0 / rc_lookahead=40 / rc=2pass / mbtree=1 / bitrate=2500 / ratetol=1.0 / qcomp=0.60 / qpmin=10 / qpmax=69 / qpstep=4 / cplxblur=20.0 / qblur=0.5 / vbv_maxrate=5500 / vbv_bufsize=24000 / nal_hrd=none / filler=0 / ip_ratio=1.40 / aq=3:1.00
Language                                 : English
Default                                  : Yes
Forced                                   : No

Audio #1
ID                                       : 2
Format                                   : AC-3
Format/Info                              : Audio Coding 3
Commercial name                          : Dolby Digital
Codec ID                                 : A_AC3
Duration                                 : 1 h 53 min
Bit rate mode                            : Constant
Bit rate                                 : 384 kb/s
Channel(s)                               : 6 channels
Channel layout                           : L R C LFE Ls Rs
Sampling rate                            : 48.0 kHz
Frame rate                               : 31.250 FPS (1536 SPF)
Bit depth                                : 16 bits
Compression mode                         : Lossy
Stream size                              : 312 MiB (12%)
Title                                    : latino
Language                                 : Spanish
Service kind                             : Complete Main
Default                                  : Yes
Forced                                   : No

Audio #2
ID                                       : 3
Format                                   : AC-3
Format/Info                              : Audio Coding 3
Commercial name                          : Dolby Digital
Codec ID                                 : A_AC3
Duration                                 : 1 h 53 min
Bit rate mode                            : Constant
Bit rate                                 : 384 kb/s
Channel(s)                               : 6 channels
Channel layout                           : L R C LFE Ls Rs
Sampling rate                            : 48.0 kHz
Frame rate                               : 31.250 FPS (1536 SPF)
Bit depth                                : 16 bits
Compression mode                         : Lossy
Stream size                              : 312 MiB (12%)
Title                                    : ingles
Language                                 : English
Service kind                             : Complete Main
Default                                  : No
Forced                                   : No

Text #1
ID                                       : 4
Format                                   : UTF-8
Codec ID                                 : S_TEXT/UTF8
Codec ID/Info                            : UTF-8 Plain Text
Duration                                 : 1 h 44 min
Bit rate                                 : 72 b/s
Count of elements                        : 1669
Stream size                              : 55.6 KiB (0%)
Title                                    : completos
Language                                 : Spanish
Default                                  : No
Forced                                   : No

Text #2
ID                                       : 5
Format                                   : UTF-8
Codec ID                                 : S_TEXT/UTF8
Codec ID/Info                            : UTF-8 Plain Text
Duration                                 : 5 s 0 ms
Bit rate                                 : 49 b/s
Count of elements                        : 1
Stream size                              : 31.0 Bytes (0%)
Title                                    : forzados
Language                                 : Spanish
Default                                  : Yes
Forced                                   : No

BitRate : 3 268 kb/s
Audio Latino : AC3 5.1
Audio Inglés : AC3 5.1

 ambos audios son finales
+ subtitulo SRT latino


Calidad Versión Atributo Tamaño link
BR-RIP 1080p 4.56 GB the-front-runner-1080p-2018-br-rip-lat.html
DVDRIP 460p 2.21 GB the-front-runner-460p-2018-dvdrip-lat.html

Para habilitar los comentarios debes estar de acuerdo con las siguientes reglas:

  • Usar lenguaje apropiado evitando las faltas de respeto.
  • No incluir links a otras páginas de descarga
  • Evitar preguntas como "Cuando suben la película" o "Cuando sale en Latino",apenas estén disponibles las subiremos.
  • Los comentarios están habilitados, solo para pedir ayuda, informar algún problema con la película o comentar sobre la misma. Cualquier otro tipo de comentario puede ser borrado
  • No hacer reclamos o comentarios respecto a la publicidad, el acceso es gratis y esa es nuestra única forma de financiar los costos de la página. Y como dice el dicho: "a caballo regalado no se le miran los dientes".
  • Si necesitas ayuda, hacerlo en www.alt-torrent.com/ayuda.html
No cumplir con esto puede ser motivo de eliminación del comentario, bloqueo de los comentarios o bloqueo en ALT, dependiendo de la falta a estas reglas.