7.2/10
16.372
9.7/10
3

Alt-torrent Películas con audio latino para ver y compartir

Criada en un barrio azotado por la pobreza, una niña de 16 años llamada Starr ahora asiste a una escuela suburbana de preparación. Después de que ella sea testigo de cómo un oficial de policía le dispara a su mejor amiga desarmada, se debate entre sus dos mundos muy diferentes mientras intenta decir su verdad.

Título original:
The Hate U Give
Año:
2018
Duración:
133 min
País:
USA
Director:
George Tillman Jr.
Escritor:
Audrey Wells (screenplay by), Angie Thomas (based upon the novel by)
Reparto:
Amandla Stenberg, Regina Hall, Russell Hornsby, Anthony Mackie
Productora:
Temple Hill Entertainment
Género:
Drama,Crimen
The Hate U Give (2018) WEBDL [1080p] LAT - By FllorTV

Format                      : Matroska
Format version              : Version 4 / Version 2
File size                   : 5.04 GiB
Duration                    : 2 h 13 min
Overall bit rate            : 5 407 kb/s
Movie name                  : www.alt-torrent.com - By FllorTV
Encoded date                : UTC 2019-01-08 10:49:01
Writing application         : mkvmerge v30.1.0 ('Forever And More') 64-bit
Writing library             : libebml v1.3.6 + libmatroska v1.4.9

Video
ID                          : 1
Format                      : AVC
Format/Info                 : Advanced Video Codec
Format profile              : [email protected]
Format settings             : CABAC / 5 Ref Frames
Format settings, CABAC      : Yes
Format settings, ReFrames   : 5 frames
Codec ID                    : V_MPEG4/ISO/AVC
Duration                    : 2 h 13 min
Bit rate                    : 4 512 kb/s
Width                       : 1 920 pixels
Height                      : 800 pixels
Display aspect ratio        : 2.40:1
Frame rate mode             : Constant
Frame rate                  : 23.976 FPS
Color space                 : YUV
Chroma subsampling          : 4:2:0
Bit depth                   : 8 bits
Scan type                   : Progressive
Bits/(Pixel*Frame)          : 0.123
Stream size                 : 4.21 GiB (83%)
Title                       : www.alt-torrent.com - By FllorTV
Default                     : Yes
Forced                      : No
Color range                 : Limited
Color primaries             : BT.709
Transfer characteristics    : BT.709
Matrix coefficients         : BT.709

Audio #1
ID                          : 2
Format                      : AC-3
Format/Info                 : Audio Coding 3
Codec ID                    : A_AC3
Duration                    : 2 h 13 min
Bit rate mode               : Constant
Bit rate                    : 448 kb/s
Channel(s)                  : 6 channels
Channel positions           : Front: L C R, Side: L R, LFE
Sampling rate               : 48.0 kHz
Frame rate                  : 31.250 FPS (1536 SPF)
Bit depth                   : 16 bits
Compression mode            : Lossy
Delay relative to video     : -43 ms
Stream size                 : 426 MiB (8%)
Title                       : Surround 5.1
Language                    : Spanish
Service kind                : Complete Main
Default                     : Yes
Forced                      : No

Audio #2
ID                          : 3
Format                      : AC-3
Format/Info                 : Audio Coding 3
Codec ID                    : A_AC3
Duration                    : 2 h 13 min
Bit rate mode               : Constant
Bit rate                    : 448 kb/s
Channel(s)                  : 6 channels
Channel positions           : Front: L C R, Side: L R, LFE
Sampling rate               : 48.0 kHz
Frame rate                  : 31.250 FPS (1536 SPF)
Bit depth                   : 16 bits
Compression mode            : Lossy
Delay relative to video     : -43 ms
Stream size                 : 426 MiB (8%)
Title                       : Surround 5.1
Language                    : English
Service kind                : Complete Main
Default                     : No
Forced                      : No

Text #1
ID                          : 4
Format                      : UTF-8
Codec ID                    : S_TEXT/UTF8
Codec ID/Info               : UTF-8 Plain Text
Duration                    : 1 h 54 min
Bit rate                    : 0 b/s
Count of elements           : 7
Stream size                 : 166 Bytes (0%)
Title                       : Forzados
Language                    : Spanish
Default                     : Yes
Forced                      : Yes

Text #2
ID                          : 5
Format                      : UTF-8
Codec ID                    : S_TEXT/UTF8
Codec ID/Info               : UTF-8 Plain Text
Duration                    : 2 h 5 min
Bit rate                    : 60 b/s
Count of elements           : 1765
Stream size                 : 55.5 KiB (0%)
Title                       : Completos
Language                    : Spanish
Default                     : No
Forced                      : No

Menu
00:00:00.000                : en:Chapter 01
00:03:55.777                : en:Chapter 02
00:08:18.080                : en:Chapter 03
00:13:14.251                : en:Chapter 04
00:19:32.127                : en:Chapter 05
00:24:48.318                : en:Chapter 06
00:29:34.312                : en:Chapter 07
00:34:54.215                : en:Chapter 08
00:40:09.530                : en:Chapter 09
00:45:05.408                : en:Chapter 10
00:50:09.210                : en:Chapter 11
00:58:27.583                : en:Chapter 12
01:03:58.371                : en:Chapter 13
01:10:00.983                : en:Chapter 14
01:14:51.272                : en:Chapter 15
01:19:50.778                : en:Chapter 16
01:27:09.591                : en:Chapter 17
01:32:11.683                : en:Chapter 18
01:37:36.215                : en:Chapter 19
01:43:59.056                : en:Chapter 20
01:49:39.146                : en:Chapter 21
01:56:20.421                : en:Chapter 22
01:58:00.145                : en:Chapter 23
02:03:50.954                : en:Chapter 24


BitRate : 5 407 kb/s
Audio Latino : AC3 5.1
Audio Inglés : AC3 5.1

* Chrome esta marcando los .torrent como archivos peligrosos,
Descarguenlos con confianza, son los mismos torrent de siempre.



Calidad Versión Atributo Tamaño link
WEBDL 1080p 3.17 GB the-hate-u-give-720p-2018-webdl-lat.html