6.7/10
34.990
8.3/10
7

Alt-torrent Películas con audio latino para ver y compartir

En la película original, el constructor Emmet, con limitados conocimientos de construcción, es confundido por un "MasterBuilder" y le introducen como jefe en una nueva e importante misión de construcción de la ciudad Lego. Además, esa misión tiene la finalidad de que un malvado destruya la ciudad, por lo que todos los habitantes de Lego tienen que unir sus fuerzas para acabar con tan peligrosa amenaza.

Título original:
The Lego Movie 2: The Second Part
Año:
2019
Duración:
107 min
País:
Denmark, Norway, Australia, USA
Director:
Mike Mitchell
Escritor:
Phil Lord (screenplay by), Christopher Miller (screenplay by), Phil Lord (story by), Christopher Miller (story by), Matthew Fogel (story by), Jerry Siegel (Superman created by), Joe Shuster (Superman created by), Bob Kane (Batman created by), Bill Finger (Batman created by), William Moulton Marston (Wonder Woman created by)
Reparto:
Chris Pratt, Elizabeth Banks, Will Arnett, Tiffany Haddish
Productora:
Vertigo Entertainment,Lin Pictures,LEGO,Animal Logic,Warner Animation Group,Warner Bros. Pictures
Género:
Acción,Aventura,Animación,Comedia,Familia,Ciencia ficción,Fantasía
Format                                   : Matroska
Format version                           : Version 4
File size                                : 3.35 GiB
Duration                                 : 1 h 45 min
Overall bit rate                         : 4 558 kb/s
Movie name                               : www.alt-torrent.com
Encoded date                             : UTC 2019-03-09 22:07:24
Writing application                      : mkvmerge v27.0.0 ('Metropolis') 64-bit
Writing library                          : libebml v1.3.6 + libmatroska v1.4.9

Video
ID                                       : 1
Format                                   : AVC
Format/Info                              : Advanced Video Codec
Format profile                           : [email protected]
Format settings                          : CABAC / 5 Ref Frames
Format settings, CABAC                   : Yes
Format settings, ReFrames                : 5 frames
Codec ID                                 : V_MPEG4/ISO/AVC
Duration                                 : 1 h 45 min
Bit rate                                 : 3 856 kb/s
Width                                    : 1 920 pixels
Height                                   : 800 pixels
Display aspect ratio                     : 2.40:1
Frame rate mode                          : Constant
Frame rate                               : 29.970 (30000/1001) FPS
Color space                              : YUV
Chroma subsampling                       : 4:2:0
Bit depth                                : 8 bits
Scan type                                : Progressive
Bits/(Pixel*Frame)                       : 0.084
Stream size                              : 2.83 GiB (85%)
Title                                    : www.alt-torrent.com
Default                                  : Yes
Forced                                   : No
Color range                              : Limited
Color primaries                          : BT.709
Transfer characteristics                 : BT.709
Matrix coefficients                      : BT.709

Audio #1
ID                                       : 2
Format                                   : AC-3
Format/Info                              : Audio Coding 3
Commercial name                          : Dolby Digital
Codec ID                                 : A_AC3
Duration                                 : 1 h 45 min
Bit rate mode                            : Constant
Bit rate                                 : 320 kb/s
Channel(s)                               : 6 channels
Channel layout                           : L R C LFE Ls Rs
Sampling rate                            : 48.0 kHz
Frame rate                               : 31.250 FPS (1536 SPF)
Bit depth                                : 16 bits
Compression mode                         : Lossy
Stream size                              : 241 MiB (7%)
Title                                    : www.alt-torrent.com
Language                                 : Spanish
Service kind                             : Complete Main
Default                                  : Yes
Forced                                   : No

Audio #2
ID                                       : 3
Format                                   : AC-3
Format/Info                              : Audio Coding 3
Commercial name                          : Dolby Digital
Codec ID                                 : A_AC3
Duration                                 : 1 h 45 min
Bit rate mode                            : Constant
Bit rate                                 : 384 kb/s
Channel(s)                               : 6 channels
Channel layout                           : L R C LFE Ls Rs
Sampling rate                            : 48.0 kHz
Frame rate                               : 31.250 FPS (1536 SPF)
Bit depth                                : 16 bits
Compression mode                         : Lossy
Delay relative to video                  : 180 ms
Stream size                              : 289 MiB (8%)
Title                                    : www.alt-torrent.com
Language                                 : English
Service kind                             : Complete Main
Default                                  : No
Forced                                   : No

BitRate : 4 558 kb/s
Audio Latino : LINE 2.0
Audio Inglés : LINE 2.0
* LINE es audio grabado de cine. Si no te gusta esta calidad,
No reclames, espera a que salga un audio de mejor calidad

* Chrome esta marcando los .torrent como archivos peligrosos,
Descarguenlos con confianza, son los mismos torrent de siempre.

 AUDIO LATINO LINE (SE OYE BIEN) - AUDIO INGLES FINAL
SIN SUBTITULOS AUN NO SALIERON!


Calidad Versión Atributo Tamaño link
HD-RIP 720p 2.36 GB the-lego-movie-2-the-second-part-720p-2019-hd-rip-lat.html
WEBDL 1080p 3.95 GB the-lego-movie-2-the-second-part-1080p-2019-webdl-lat.html
WEBDL 720p 2.45 GB the-lego-movie-2-the-second-part-720p-2019-webdl-lat.html