5.6/10
2.970
5.9/10
1

Alt-torrent Películas para ver y compartir

Calvin Barr, un veterano estadounidense que desde la II Guerra Mundial ha vivido con el secreto de que fue el responsable de asesinar a Adolf Hitler, es reclutado por el Gobierno Norteamericano para intentar dar cazar a una criatura mitológica: Bigfoot, que vive en los bosques canadienses.

Título original:
The Man Who Killed Hitler and Then the Bigfoot
Año:
2018
Duración:
98 min
País:
USA
Director:
Robert D. Krzykowski
Escritor:
Robert D. Krzykowski
Reparto:
Sam Elliott, Aidan Turner, Ron Livingston, Sean Bridgers
Productora:
Epic Pictures
Género:
Drama,Aventura
The Man Who Killed Hitler and Then The Bigfoot (2018) WEBDL 1080p ENG - FllorTV

Format                      : Matroska
Format version              : Version 4 / Version 2
File size                   : 5.53 GiB
Duration                    : 1 h 37 min
Overall bit rate            : 8 094 kb/s
Movie name                  : www.alt-torrent.com / - By FllorTV
Encoded date                : UTC 2019-02-11 08:52:52
Writing application         : mkvmerge v31.0.0 ('Dolores In A Shoestand') 64-bit
Writing library             : libebml v1.3.6 + libmatroska v1.4.9

Video
ID                          : 1
Format                      : AVC
Format/Info                 : Advanced Video Codec
Format profile              : [email protected]
Format settings             : CABAC / 4 Ref Frames
Format settings, CABAC      : Yes
Format settings, RefFrames  : 4 frames
Codec ID                    : V_MPEG4/ISO/AVC
Duration                    : 1 h 37 min
Bit rate mode               : Constant
Bit rate                    : 7 708 kb/s
Nominal bit rate            : 10 000 kb/s
Width                       : 1 920 pixels
Height                      : 1 080 pixels
Display aspect ratio        : 16:9
Frame rate mode             : Constant
Frame rate                  : 23.976 (24000/1001) FPS
Color space                 : YUV
Chroma subsampling          : 4:2:0
Bit depth                   : 8 bits
Scan type                   : Progressive
Bits/(Pixel*Frame)          : 0.155
Stream size                 : 5.27 GiB (95%)
Title                       : www.alt-torrent.com / - By FllorTV
Default                     : Yes
Forced                      : No
Color range                 : Limited
Color primaries             : BT.709
Transfer characteristics    : BT.709
Matrix coefficients         : BT.709

Audio
ID                          : 2
Format                      : AC-3
Format/Info                 : Audio Coding 3
Format settings, Endianness : Big
Codec ID                    : A_AC3
Duration                    : 1 h 37 min
Bit rate mode               : Constant
Bit rate                    : 384 kb/s
Channel(s)                  : 6 channels
Channel positions           : Front: L C R, Side: L R, LFE
Sampling rate               : 48.0 kHz
Frame rate                  : 31.250 FPS (1536 SPF)
Bit depth                   : 16 bits
Compression mode            : Lossy
Stream size                 : 269 MiB (5%)
Title                       : Ingles
Language                    : English
Service kind                : Complete Main
Default                     : Yes
Forced                      : No

Text
ID                          : 3
Format                      : UTF-8
Codec ID                    : S_TEXT/UTF8
Codec ID/Info               : UTF-8 Plain Text
Duration                    : 1 h 30 min
Bit rate                    : 31 b/s
Count of elements           : 794
Stream size                 : 20.7 KiB (0%)
Title                       : Latino
Language                    : Spanish
Default                     : Yes
Forced                      : Yes


BitRate : 8 094 kb/s
Audio Inglés : AC3 5.1

* Chrome esta marcando los .torrent como archivos peligrosos,
Descarguenlos con confianza, son los mismos torrent de siempre.