6.5/10
2.878
7.0/10
1

Alt-torrent Películas con audio latino para ver y compartir

Basado en la historia real del equipo de voleibol femenino de West High School. Tras la trágica muerte de la jugadora estrella de la escuela, Caroline 'Line' Found, las jugadores restantes deberán unirse bajo la dirección de su dura entrenadora (Helen Hunt) con la esperanza de ganar el campeonato estatal.

Título original:
The Miracle Season
Año:
2018
Duración:
101 min
País:
USA
Director:
Sean McNamara
Escritor:
David Aaron Cohen (screenplay by), Elissa Matsueda (screenplay by), David Aaron Cohen (story by)
Reparto:
Helen Hunt, Erin Moriarty, William Hurt, Danika Yarosh
Productora:
LD Entertainment,Apex Entertainment
Género:
Drama
The Miracle Season (2018) 1080p LAT - By FllorTV

Format                      : Matroska
Format version              : Version 4 / Version 2
File size                   : 6.99 GiB
Duration                    : 1 h 41 min
Overall bit rate            : 9 900 kb/s
Movie name                  : www.alt-torrent.com / - By FllorTV
Encoded date                : UTC 2019-01-03 10:05:54
Writing application         : mkvmerge v28.2.0 ('The Awakening') 64-bit
Writing library             : libebml v1.3.6 + libmatroska v1.4.9

Video
ID                          : 1
Format                      : AVC
Format/Info                 : Advanced Video Codec
Format profile              : High@L4.1
Format settings             : CABAC / 5 Ref Frames
Format settings, CABAC      : Yes
Format settings, ReFrames   : 5 frames
Codec ID                    : V_MPEG4/ISO/AVC
Duration                    : 1 h 41 min
Bit rate                    : 9 329 kb/s
Width                       : 1 920 pixels
Height                      : 808 pixels
Display aspect ratio        : 2.40:1
Frame rate mode             : Constant
Frame rate                  : 23.976 (24000/1001) FPS
Color space                 : YUV
Chroma subsampling          : 4:2:0
Bit depth                   : 8 bits
Scan type                   : Progressive
Bits/(Pixel*Frame)          : 0.251
Stream size                 : 6.58 GiB (94%)
Title                       : www.alt-torrent.com / - By FllorTV
Writing library             : x264 core 155 r2901 7d0ff22
Encoding settings           : cabac=1 / ref=5 / deblock=1:-3:-3 / analyse=0x3:0x113 / me=umh / subme=8 / psy=1 / psy_rd=1.00:0.00 / mixed_ref=1 / me_range=32 / chroma_me=1 / trellis=2 / 8x8dct=1 / cqm=0 / deadzone=21,11 / fast_pskip=1 / chroma_qp_offset=-2 / threads=24 / lookahead_threads=4 / sliced_threads=0 / nr=0 / decimate=1 / interlaced=0 / bluray_compat=0 / constrained_intra=0 / bframes=3 / b_pyramid=2 / b_adapt=2 / b_bias=0 / direct=3 / weightb=1 / open_gop=0 / weightp=2 / keyint=240 / keyint_min=24 / scenecut=40 / intra_refresh=0 / rc_lookahead=50 / rc=2pass / mbtree=1 / bitrate=9329 / ratetol=1.0 / qcomp=0.60 / qpmin=0 / qpmax=69 / qpstep=4 / cplxblur=20.0 / qblur=0.5 / ip_ratio=1.40 / aq=3:0.80
Default                     : Yes
Forced                      : No

Audio #1
ID                          : 2
Format                      : AC-3
Format/Info                 : Audio Coding 3
Codec ID                    : A_AC3
Duration                    : 1 h 41 min
Bit rate mode               : Constant
Bit rate                    : 192 kb/s
Channel(s)                  : 2 channels
Channel positions           : Front: L R
Sampling rate               : 48.0 kHz
Frame rate                  : 31.250 FPS (1536 SPF)
Bit depth                   : 16 bits
Compression mode            : Lossy
Stream size                 : 139 MiB (2%)
Title                       : Latino
Language                    : Spanish
Service kind                : Complete Main
Default                     : Yes
Forced                      : No

Audio #2
ID                          : 3
Format                      : AC-3
Format/Info                 : Audio Coding 3
Codec ID                    : A_AC3
Duration                    : 1 h 41 min
Bit rate mode               : Constant
Bit rate                    : 384 kb/s
Channel(s)                  : 6 channels
Channel positions           : Front: L C R, Side: L R, LFE
Sampling rate               : 48.0 kHz
Frame rate                  : 31.250 FPS (1536 SPF)
Bit depth                   : 16 bits
Compression mode            : Lossy
Stream size                 : 278 MiB (4%)
Title                       : Ingles
Language                    : English
Service kind                : Complete Main
Default                     : No
Forced                      : No

Text #1
ID                          : 4
Format                      : UTF-8
Codec ID                    : S_TEXT/UTF8
Codec ID/Info               : UTF-8 Plain Text
Duration                    : 5 s 0 ms
Bit rate                    : 49 b/s
Count of elements           : 1
Stream size                 : 31.0 Bytes (0%)
Title                       : Forzados
Language                    : Spanish
Default                     : Yes
Forced                      : Yes

Text #2
ID                          : 5
Format                      : UTF-8
Codec ID                    : S_TEXT/UTF8
Codec ID/Info               : UTF-8 Plain Text
Duration                    : 1 h 40 min
Bit rate                    : 56 b/s
Count of elements           : 1300
Stream size                 : 41.8 KiB (0%)
Title                       : Completos
Language                    : Spanish
Default                     : No
Forced                      : No

Menu
00:00:00.000                : en:00:00:00.000
00:06:39.524                : en:00:06:39.524
00:13:53.666                : en:00:13:53.666
00:19:23.412                : en:00:19:23.412
00:27:54.882                : en:00:27:54.882
00:35:27.751                : en:00:35:27.751
00:41:09.926                : en:00:41:09.926
00:46:54.353                : en:00:46:54.353
00:53:18.153                : en:00:53:18.153
01:01:07.747                : en:01:01:07.747
01:06:39.162                : en:01:06:39.162
01:11:42.381                : en:01:11:42.381
01:18:56.899                : en:01:18:56.899
01:24:35.779                : en:01:24:35.779
01:29:50.218                : en:01:29:50.218
01:35:23.593                : en:01:35:23.593


BitRate : 9 900 kb/s
Audio Latino : AC3 2.0
Audio Inglés : AC3 2.0

* Chrome esta marcando los .torrent como archivos peligrosos,
Descarguenlos con confianza, son los mismos torrent de siempre.