7.1/10
7.559
9.8/10
4

Alt-torrent Películas con audio latino para ver y compartir

Narra una historia real, la de Forrest Tucker, un ladrón de bancos que pasó la mayor parte de su vida en la cárcel o intentando escapar de ella. De hecho, logró fugarse en 18 ocasiones y cometió su último atraco en el año 2000 cuando tenía 80 años.

Título original:
The Old Man & the Gun
Año:
2018
Duración:
93 min
País:
USA
Director:
David Lowery
Escritor:
David Lowery, David Grann (based on the New Yorker article by)
Reparto:
Robert Redford, Sissy Spacek, Casey Affleck, Danny Glover
Productora:
Condé Nast Entertainment,Endgame Entertainment,Identity Films,Sailor Bear,Wildwood Enterprises
Género:
Comedia,Crimen,Drama
Format                                   : Matroska
Format version                           : Version 4
File size                                : 3.90 GiB
Duration                                 : 1 h 33 min
Overall bit rate                         : 6 003 kb/s
Movie name                               : www.alt-torrent.com - By FllorTV
Encoded date                             : UTC 2019-01-07 14:52:46
Writing application                      : mkvmerge v27.0.0 ('Metropolis') 64-bit
Writing library                          : libebml v1.3.6 + libmatroska v1.4.9

Video
ID                                       : 1
Format                                   : AVC
Format/Info                              : Advanced Video Codec
Format profile                           : [email protected]
Format settings                          : CABAC / 5 Ref Frames
Format settings, CABAC                   : Yes
Format settings, ReFrames                : 5 frames
Codec ID                                 : V_MPEG4/ISO/AVC
Duration                                 : 1 h 33 min
Bit rate                                 : 5 000 kb/s
Width                                    : 1 920 pixels
Height                                   : 800 pixels
Display aspect ratio                     : 2.40:1
Frame rate mode                          : Constant
Frame rate                               : 23.976 (24000/1001) FPS
Color space                              : YUV
Chroma subsampling                       : 4:2:0
Bit depth                                : 8 bits
Scan type                                : Progressive
Bits/(Pixel*Frame)                       : 0.136
Stream size                              : 3.24 GiB (83%)
Title                                    : www.alt-torrent.com
Writing library                          : x264 core 155 r2901
Encoding settings                        : cabac=1 / ref=5 / deblock=1:0:0 / analyse=0x3:0x133 / me=umh / subme=8 / psy=1 / psy_rd=1.00:0.00 / mixed_ref=0 / me_range=16 / chroma_me=1 / trellis=2 / 8x8dct=1 / cqm=0 / deadzone=21,11 / fast_pskip=1 / chroma_qp_offset=-2 / threads=25 / lookahead_threads=4 / sliced_threads=0 / nr=0 / decimate=1 / interlaced=0 / bluray_compat=0 / constrained_intra=0 / bframes=3 / b_pyramid=0 / b_adapt=2 / b_bias=0 / direct=3 / weightb=1 / open_gop=0 / weightp=2 / keyint=239 / keyint_min=23 / scenecut=40 / intra_refresh=0 / rc_lookahead=50 / rc=2pass / mbtree=1 / bitrate=5000 / ratetol=1.0 / qcomp=0.60 / qpmin=10 / qpmax=69 / qpstep=4 / cplxblur=20.0 / qblur=0.5 / vbv_maxrate=5500 / vbv_bufsize=24000 / nal_hrd=none / filler=0 / ip_ratio=1.40 / aq=3:1.00
Default                                  : Yes
Forced                                   : No

Audio #1
ID                                       : 2
Format                                   : AC-3
Format/Info                              : Audio Coding 3
Commercial name                          : Dolby Digital
Codec ID                                 : A_AC3
Duration                                 : 1 h 33 min
Bit rate mode                            : Constant
Bit rate                                 : 640 kb/s
Channel(s)                               : 6 channels
Channel layout                           : L R C LFE Ls Rs
Sampling rate                            : 48.0 kHz
Frame rate                               : 31.250 FPS (1536 SPF)
Bit depth                                : 16 bits
Compression mode                         : Lossy
Delay relative to video                  : 900 ms
Stream size                              : 426 MiB (11%)
Title                                    : latino
Language                                 : Spanish
Service kind                             : Complete Main
Default                                  : Yes
Forced                                   : No

Audio #2
ID                                       : 3
Format                                   : AC-3
Format/Info                              : Audio Coding 3
Commercial name                          : Dolby Digital
Codec ID                                 : A_AC3
Duration                                 : 1 h 33 min
Bit rate mode                            : Constant
Bit rate                                 : 384 kb/s
Channel(s)                               : 6 channels
Channel layout                           : L R C LFE Ls Rs
Sampling rate                            : 48.0 kHz
Frame rate                               : 31.250 FPS (1536 SPF)
Bit depth                                : 16 bits
Compression mode                         : Lossy
Stream size                              : 256 MiB (6%)
Title                                    : ingles
Language                                 : English
Service kind                             : Complete Main
Default                                  : No
Forced                                   : No

Text
ID                                       : 4
Format                                   : UTF-8
Codec ID                                 : S_TEXT/UTF8
Codec ID/Info                            : UTF-8 Plain Text
Duration                                 : 1 h 26 min
Bit rate                                 : 51 b/s
Count of elements                        : 973
Stream size                              : 32.6 KiB (0%)
Title                                    : latino
Language                                 : Spanish
Default                                  : Yes
Forced                                   : No

BitRate : 6 003 kb/s
Audio Latino : AC3 5.1
Audio Inglés : AC3 5.1



Calidad Versión Tamaño link
720p 2.29 GB the-old-man-the-gun-2018-720p-lat.html
WEBDL 5.01 GB the-old-man-the-gun-2018-webdl-lat.html

Puntuación

Basado en 1 valoraciones

6.7

Desglose de puntuación

  • Película
    7.0
  • Audio
    7.0
  • Video
    6.0

eu1968 / 13-01-2019, 05:09

+0 -0

6.7 "fantastica"

  • +interpretacion
  • -nada