6.8/10
23.274
7.3/10
4

Alt-torrent Películas con audio latino para ver y compartir

Narra una historia real, la de Forrest Tucker, un ladrón de bancos que pasó la mayor parte de su vida en la cárcel o intentando escapar de ella. De hecho, logró fugarse en 18 ocasiones y cometió su último atraco en el año 2000 cuando tenía 80 años.

Título original:
The Old Man & the Gun
Año:
2018
Duración:
93 min
País:
USA
Director:
David Lowery
Escritor:
David Lowery, David Grann (based on the New Yorker article by)
Reparto:
Robert Redford, Sissy Spacek, Casey Affleck, Danny Glover
Productora:
Condé Nast Entertainment,Endgame Entertainment,Identity Films,Sailor Bear,Wildwood Enterprises
Género:
Comedia,Crimen,Drama
The Old Man & the Gun (2018) WEBDL LAT - By FllorTV

Format                      : Matroska
Format version              : Version 4 / Version 2
File size                   : 5.00 GiB
Duration                    : 1 h 32 min
Overall bit rate            : 7 700 kb/s
Movie name                  : www.alt-torrent.com / - By FllorTV
Encoded date                : UTC 2019-01-02 13:06:36
Writing application         : mkvmerge v28.2.0 ('The Awakening') 64-bit
Writing library             : libebml v1.3.6 + libmatroska v1.4.9

Video
ID                          : 1
Format                      : AVC
Format/Info                 : Advanced Video Codec
Format profile              : [email protected]
Format settings             : CABAC / 4 Ref Frames
Format settings, CABAC      : Yes
Format settings, ReFrames   : 4 frames
Codec ID                    : V_MPEG4/ISO/AVC
Duration                    : 1 h 32 min
Bit rate                    : 6 500 kb/s
Width                       : 1 920 pixels
Height                      : 800 pixels
Display aspect ratio        : 2.40:1
Frame rate mode             : Constant
Frame rate                  : 24.000 FPS
Color space                 : YUV
Chroma subsampling          : 4:2:0
Bit depth                   : 8 bits
Scan type                   : Progressive
Bits/(Pixel*Frame)          : 0.176
Stream size                 : 4.17 GiB (83%)
Title                       : www.alt-torrent.com / - By FllorTV
Writing library             : x264 core 148 r2795M aaa9aa8
Encoding settings           : cabac=1 / ref=4 / deblock=1:0:0 / analyse=0x3:0x113 / me=umh / subme=9 / psy=1 / psy_rd=1.00:0.00 / mixed_ref=1 / me_range=16 / chroma_me=1 / trellis=2 / 8x8dct=1 / cqm=0 / deadzone=21,11 / fast_pskip=1 / chroma_qp_offset=-2 / threads=72 / lookahead_threads=6 / sliced_threads=0 / nr=0 / decimate=1 / interlaced=0 / bluray_compat=0 / constrained_intra=0 / bframes=3 / b_pyramid=2 / b_adapt=2 / b_bias=0 / direct=3 / weightb=1 / open_gop=0 / weightp=2 / keyint=250 / keyint_min=24 / scenecut=40 / intra_refresh=0 / rc_lookahead=50 / rc=abr / mbtree=1 / bitrate=6500 / ratetol=1.0 / qcomp=0.60 / qpmin=0 / qpmax=69 / qpstep=4 / ip_ratio=1.40 / aq=1:1.00
Default                     : Yes
Forced                      : No

Audio #1
ID                          : 2
Format                      : AC-3
Format/Info                 : Audio Coding 3
Codec ID                    : A_AC3
Duration                    : 1 h 32 min
Bit rate mode               : Constant
Bit rate                    : 640 kb/s
Channel(s)                  : 6 channels
Channel positions           : Front: L C R, Side: L R, LFE
Sampling rate               : 48.0 kHz
Frame rate                  : 31.250 FPS (1536 SPF)
Bit depth                   : 16 bits
Compression mode            : Lossy
Delay relative to video     : 4 ms
Stream size                 : 426 MiB (8%)
Title                       : Latino
Language                    : Spanish
Service kind                : Complete Main
Default                     : Yes
Forced                      : No

Audio #2
ID                          : 3
Format                      : AC-3
Format/Info                 : Audio Coding 3
Codec ID                    : A_AC3
Duration                    : 1 h 32 min
Bit rate mode               : Constant
Bit rate                    : 640 kb/s
Channel(s)                  : 6 channels
Channel positions           : Front: L C R, Side: L R, LFE
Sampling rate               : 48.0 kHz
Frame rate                  : 31.250 FPS (1536 SPF)
Bit depth                   : 16 bits
Compression mode            : Lossy
Delay relative to video     : 4 ms
Stream size                 : 426 MiB (8%)
Title                       : Ingles
Language                    : English
Service kind                : Complete Main
Default                     : No
Forced                      : No

Text #1
ID                          : 4
Format                      : UTF-8
Codec ID                    : S_TEXT/UTF8
Codec ID/Info               : UTF-8 Plain Text
Duration                    : 5 s 0 ms
Bit rate                    : 49 b/s
Count of elements           : 1
Stream size                 : 31.0 Bytes (0%)
Title                       : Forzados
Language                    : Spanish
Default                     : Yes
Forced                      : Yes

Text #2
ID                          : 5
Format                      : UTF-8
Codec ID                    : S_TEXT/UTF8
Codec ID/Info               : UTF-8 Plain Text
Duration                    : 1 h 26 min
Bit rate                    : 51 b/s
Count of elements           : 973
Stream size                 : 32.6 KiB (0%)
Title                       : Completos
Language                    : Spanish
Default                     : No
Forced                      : No

Menu
00:00:00.000                : en:Chapter 01
00:03:20.617                : en:Chapter 02
00:08:17.497                : en:Chapter 03
00:13:34.939                : en:Chapter 04
00:19:33.504                : en:Chapter 05
00:23:01.211                : en:Chapter 06
00:26:34.757                : en:Chapter 07
00:30:37.958                : en:Chapter 08
00:34:16.468                : en:Chapter 09
00:38:01.151                : en:Chapter 10
00:41:29.692                : en:Chapter 11
00:44:39.882                : en:Chapter 12
00:48:18.224                : en:Chapter 13
00:50:04.997                : en:Chapter 14
00:53:43.297                : en:Chapter 15
00:56:17.867                : en:Chapter 16
01:00:08.972                : en:Chapter 17
01:04:18.011                : en:Chapter 18
01:09:39.956                : en:Chapter 19
01:14:19.776                : en:Chapter 20
01:18:01.581                : en:Chapter 21
01:21:17.234                : en:Chapter 22
01:24:32.928                : en:Chapter 23
01:26:48.979                : en:Chapter 24


BitRate : 7 700 kb/s
Audio Latino : AC3 5.1
Audio Inglés : AC3 5.1

* Chrome esta marcando los .torrent como archivos peligrosos,
Descarguenlos con confianza, son los mismos torrent de siempre.



Calidad Versión Atributo Tamaño link
BR-RIP 1080p 3.91 GB the-old-man-the-gun-2018-1080p-lat.html
BR-RIP 720p 2.29 GB the-old-man-the-gun-2018-720p-lat.html