5.7/10
175.871
10.0/10
1

Alt-torrent Películas con audio latino para ver y compartir

Año 2022. En una futura sociedad distópica, el régimen político vigente, llamado Nueva Fundación de los padres de América, ha decidido como medida catárquica implantar la "purga anual", una regla por la que una noche de cada año se puede cometer cualquier crimen, incluyendo asesinatos y violaciones, sin tener que hacer frente a las consecuencias ni responder ante la justicia. Así, cuando las viciadas nuevas reglas del mundo exterior amenacen su casa, los miembros de una familia verán su vida en peligro, en el transcurso de una terrorífica noche durante la cual todos se verán puestos a prueba para ver hasta dónde son capaces de llegar para protegerse.

Título original:
The Purge
Año:
2013
Duración:
85 min
País:
USA, France
Director:
James DeMonaco
Escritor:
James DeMonaco
Reparto:
Ethan Hawke, Lena Headey, Max Burkholder, Adelaide Kane
Productora:
Universal Pictures,Why Not Productions,Platinum Dunes,Blumhouse Productions,20th Century Fox Russia
Género:
Ciencia ficción,Terror,Suspense
General
Unique ID                                : 82358279135083562216000643783523659115 (0x3DF5A0AA185BA8C6AB698C0DCADD6D6B)
Complete name                            : /home/zeiz/files/The Purge (2013) FullHD LAT - CharlX/The Purge (2013) FullHD LAT - CharlX.mkv
Format                                   : Matroska
Format version                           : Version 4
File size                                : 4.10 GiB
Duration                                 : 1 h 25 min
Overall bit rate                         : 6 876 kb/s
Movie name                               : The Purge (2013) FullHD LAT - CharlX
Encoded date                             : UTC 2019-01-11 20:36:53 / UTC 2018-04-21T11:37:41Z
Writing application                      : mkvmerge v26.0.0 ('In The Game') 64-bit
Writing library                          : libebml v1.3.6 + libmatroska v1.4.9 / Lavf57.7.2
Attachments                              : The Purge (2013) FullHD LAT - CharlX.jpg
Uploader                                 : CharlX
Web                                      : www.alt-torrent.com

Video
ID                                       : 1
Format                                   : AVC
Format/Info                              : Advanced Video Codec
Format profile                           : [email protected]
Format settings                          : CABAC / 4 Ref Frames
Format settings, CABAC                   : Yes
Format settings, ReFrames                : 4 frames
Codec ID                                 : V_MPEG4/ISO/AVC
Duration                                 : 1 h 25 min
Bit rate                                 : 5 550 kb/s
Width                                    : 1 920 pixels
Height                                   : 1 080 pixels
Display aspect ratio                     : 16:9
Frame rate mode                          : Constant
Frame rate                               : 23.976 (24000/1001) FPS
Color space                              : YUV
Chroma subsampling                       : 4:2:0
Bit depth                                : 8 bits
Scan type                                : Progressive
Bits/(Pixel*Frame)                       : 0.112
Stream size                              : 3.32 GiB (81%)
Title                                    : The Purge (2013) FullHD LAT - CharlX
Writing library                          : x264 core 148 r2708 86b7198
Encoding settings                        : cabac=1 / ref=4 / deblock=1:-1:-1 / analyse=0x1:0x131 / me=umh / subme=10 / psy=1 / psy_rd=1.00:0.15 / mixed_ref=1 / me_range=24 / chroma_me=1 / trellis=2 / 8x8dct=0 / cqm=0 / deadzone=21,11 / fast_pskip=1 / chroma_qp_offset=-3 / threads=12 / lookahead_threads=2 / sliced_threads=0 / nr=0 / decimate=1 / interlaced=0 / bluray_compat=0 / constrained_intra=0 / bframes=8 / b_pyramid=2 / b_adapt=2 / b_bias=0 / direct=3 / weightb=1 / open_gop=0 / weightp=2 / keyint=240 / keyint_min=24 / scenecut=40 / intra_refresh=0 / rc_lookahead=60 / rc=abr / mbtree=1 / bitrate=5550 / ratetol=1.0 / qcomp=0.60 / qpmin=0 / qpmax=69 / qpstep=4 / vbv_maxrate=50000 / vbv_bufsize=62500 / nal_hrd=none / filler=0 / ip_ratio=1.40 / aq=1:1.00
Language                                 : English
Default                                  : Yes
Forced                                   : No
Color range                              : Limited
Color primaries                          : BT.709
Transfer characteristics                 : BT.709
Matrix coefficients                      : BT.709

Audio #1
ID                                       : 2
Format                                   : AC-3
Format/Info                              : Audio Coding 3
Commercial name                          : Dolby Digital
Codec ID                                 : A_AC3
Duration                                 : 1 h 25 min
Bit rate mode                            : Constant
Bit rate                                 : 640 kb/s
Channel(s)                               : 6 channels
Channel layout                           : L R C LFE Ls Rs
Sampling rate                            : 48.0 kHz
Frame rate                               : 31.250 FPS (1536 SPF)
Bit depth                                : 16 bits
Compression mode                         : Lossy
Stream size                              : 390 MiB (9%)
Title                                    : Latino
Language                                 : Latin
Service kind                             : Complete Main
Default                                  : Yes
Forced                                   : No

Audio #2
ID                                       : 3
Format                                   : AC-3
Format/Info                              : Audio Coding 3
Commercial name                          : Dolby Digital
Codec ID                                 : A_AC3
Duration                                 : 1 h 25 min
Bit rate mode                            : Constant
Bit rate                                 : 640 kb/s
Channel(s)                               : 6 channels
Channel layout                           : L R C LFE Ls Rs
Sampling rate                            : 48.0 kHz
Frame rate                               : 31.250 FPS (1536 SPF)
Bit depth                                : 16 bits
Compression mode                         : Lossy
Stream size                              : 390 MiB (9%)
Title                                    : Inglés
Language                                 : English
Service kind                             : Complete Main
Default                                  : No
Forced                                   : No

Text #1
ID                                       : 4
Format                                   : UTF-8
Codec ID                                 : S_TEXT/UTF8
Codec ID/Info                            : UTF-8 Plain Text
Duration                                 : 5 min 41 s
Bit rate                                 : 3 b/s
Count of elements                        : 5
Stream size                              : 147 Bytes (0%)
Title                                    : www.alt-torrent.com
Language                                 : Latin
Default                                  : Yes
Forced                                   : Yes

Text #2
ID                                       : 5
Format                                   : PGS
Muxing mode                              : zlib
Codec ID                                 : S_HDMV/PGS
Codec ID/Info                            : Picture based subtitle format used on BDs/HD-DVDs
Duration                                 : 1 h 19 min
Bit rate                                 : 28.3 kb/s
Count of elements                        : 1823
Stream size                              : 16.2 MiB (0%)
Title                                    : Latino - PGS
Language                                 : Latin
Default                                  : No
Forced                                   : No

Text #3
ID                                       : 6
Format                                   : PGS
Muxing mode                              : zlib
Codec ID                                 : S_HDMV/PGS
Codec ID/Info                            : Picture based subtitle format used on BDs/HD-DVDs
Duration                                 : 1 h 23 min
Bit rate                                 : 35.4 kb/s
Count of elements                        : 2190
Stream size                              : 21.1 MiB (1%)
Title                                    : Inglés - PGS
Language                                 : English
Default                                  : No
Forced                                   : No

Menu
00:00:00.000                             : :Chapter 1
00:04:30.562                             : :Chapter 2
00:07:24.527                             : :Chapter 3
00:13:48.703                             : :Chapter 4
00:18:24.103                             : :Chapter 5
00:23:11.599                             : :Chapter 6
00:28:13.859                             : :Chapter 7
00:31:33.392                             : :Chapter 8
00:35:42.182                             : :Chapter 9
00:39:28.867                             : :Chapter 10
00:44:37.633                             : :Chapter 11
00:47:53.204                             : :Chapter 12
00:50:33.364                             : :Chapter 13
00:56:02.568                             : :Chapter 14
01:00:20.408                             : :Chapter 15
01:03:36.062                             : :Chapter 16
01:07:09.776                             : :Chapter 17
01:11:09.891                             : :Chapter 18
01:16:01.932                             : :Chapter 19
01:19:27.554                             : :Chapter 20

BitRate : 6 876 kb/s
Audio Latino : AC3 5.1
Audio Inglés : AC3 5.1



Calidad Versión Tamaño link
1080p 2.65 GB the-purge--1080p.html

Puntuación

Basado en 0 valoraciones

0.0

Desglose de puntuación

  • Película
    0.0
  • Audio
    0.0
  • Video
    0.0