6.5/10
16.377
9.7/10
10

Alt-torrent Películas con audio latino para ver y compartir

Secuela de la película de animación Mascotas, que contaba la historia de Max, un perro que adora a su dueña Katie y la vida que llevan juntos, pero que tiene que aprender a lidiar con la nueva mascota de la casa, un mestizo torpe y descuidado llamado Duke. Dirigida por Chris Renaud (Gru. Mi villano favorito) y escrita por Brian Lynch (El gato con botas, Los minions) y Ken Daurio (Gru, mi villano favorito, Mascotas), esta cinta de animación narrará de nuevo qué hacen exactamente nuestros animales de compañía cuando salimos por la puerta de casa.

Título original:
The Secret Life of Pets 2
Año:
2019
Duración:
86 min
País:
France, Japan, USA
Director:
Chris Renaud, Jonathan del Val(co-director)
Escritor:
Brian Lynch
Reparto:
Patton Oswalt, Kevin Hart, Harrison Ford, Eric Stonestreet
Productora:
Universal Pictures,Illumination Entertainment
Género:
Aventura,Animación,Comedia,Familia
General
Unique ID                                : 273836118109031701014969117948553694235 (0xCE02EB00381C13AD87C6D5B047978C1B)
Complete name                            : The Secret Life of Pets 2 (2019) WEBDL 1080p LAT - FllorTV.mkv
Format                                   : Matroska
Format version                           : Version 4
File size                                : 3.40 GiB
Duration                                 : 1 h 26 min
Overall bit rate                         : 5 652 kb/s
Movie name                               : www.alt-torrent.com
Encoded date                             : UTC 2019-08-13 12:53:44
Writing application                      : mkvmerge v27.0.0 ('Metropolis') 64-bit
Writing library                          : libebml v1.3.6 + libmatroska v1.4.9

Video
ID                                       : 1
Format                                   : AVC
Format/Info                              : Advanced Video Codec
Format profile                           : [email protected]
Format settings                          : CABAC / 4 Ref Frames
Format settings, CABAC                   : Yes
Format settings, ReFrames                : 4 frames
Codec ID                                 : V_MPEG4/ISO/AVC
Duration                                 : 1 h 26 min
Bit rate                                 : 5 137 kb/s
Width                                    : 1 920 pixels
Height                                   : 1 036 pixels
Display aspect ratio                     : 1.85:1
Frame rate mode                          : Constant
Frame rate                               : 23.976 (24000/1001) FPS
Color space                              : YUV
Chroma subsampling                       : 4:2:0
Bit depth                                : 8 bits
Scan type                                : Progressive
Bits/(Pixel*Frame)                       : 0.108
Stream size                              : 3.09 GiB (91%)
Title                                    : www.alt-torrent.com
Language                                 : English
Default                                  : Yes
Forced                                   : No
Color range                              : Limited
Color primaries                          : BT.709
Transfer characteristics                 : BT.709
Matrix coefficients                      : BT.709

Audio #1
ID                                       : 2
Format                                   : AAC LC
Format/Info                              : Advanced Audio Codec Low Complexity
Codec ID                                 : A_AAC-2
Duration                                 : 1 h 26 min
Bit rate                                 : 128 kb/s
Channel(s)                               : 2 channels
Channel layout                           : L R
Sampling rate                            : 48.0 kHz
Frame rate                               : 46.875 FPS (1024 SPF)
Compression mode                         : Lossy
Delay relative to video                  : -42 ms
Stream size                              : 78.6 MiB (2%)
Title                                    : www.alt-torrent.com
Language                                 : Spanish
Default                                  : Yes
Forced                                   : No

Audio #2
ID                                       : 3
Format                                   : AC-3
Format/Info                              : Audio Coding 3
Commercial name                          : Dolby Digital
Codec ID                                 : A_AC3
Duration                                 : 1 h 26 min
Bit rate mode                            : Constant
Bit rate                                 : 384 kb/s
Channel(s)                               : 6 channels
Channel layout                           : L R C LFE Ls Rs
Sampling rate                            : 48.0 kHz
Frame rate                               : 31.250 FPS (1536 SPF)
Bit depth                                : 16 bits
Compression mode                         : Lossy
Delay relative to video                  : -42 ms
Stream size                              : 236 MiB (7%)
Title                                    : www.alt-torrent.com
Language                                 : English
Service kind                             : Complete Main
Default                                  : No
Forced                                   : No

Text #1
ID                                       : 4
Format                                   : UTF-8
Codec ID                                 : S_TEXT/UTF8
Codec ID/Info                            : UTF-8 Plain Text
Duration                                 : 1 h 20 min
Bit rate                                 : 0 b/s
Count of elements                        : 4
Stream size                              : 141 Bytes (0%)
Title                                    : www.alt-torrent.com
Language                                 : Spanish
Default                                  : Yes
Forced                                   : No

Text #2
ID                                       : 5
Format                                   : UTF-8
Codec ID                                 : S_TEXT/UTF8
Codec ID/Info                            : UTF-8 Plain Text
Duration                                 : 1 h 25 min
Bit rate                                 : 43 b/s
Count of elements                        : 1088
Stream size                              : 27.5 KiB (0%)
Title                                    : www.alt-torrent.com
Language                                 : Spanish
Default                                  : No
Forced                                   : No


BitRate : 5 652 kb/s
Audio Latino : AAC 2.0
Audio Inglés : AAC 2.0

* Chrome esta marcando los .torrent como archivos peligrosos,
Descarguenlos con confianza, son los mismos torrent de siempre.

 AMBOS AUDIOS FINALES
LATINO AAC 2.0 - INGLES AC3 5.1
+ SUBTITULO SRT LATINO


Calidad Versión Atributo Tamaño link
BR-RIP 1080p 2.61 GB the-secret-life-of-pets-2-1080p-br-rip-1080p-lat.html
BR-RIP 720p 2.04 GB the-secret-life-of-pets-2-720p-br-rip-720p-lat.html
WEBDL 720p 1.81 GB the-secret-life-of-pets-2-720p-webdl-720p-lat.html