6.8/10
245.745
7.1/10
23

Alt-torrent Películas con audio latino para ver y compartir

Eddie Brock (Tom Hardy) es un consolidado periodista y astuto reportero que está investigando una empresa llamada Fundación Vida. Esta fundación, dirigida por el eminente científico Carlton Drake (Riz Ahmed), está ejecutando secretamente experimentos ilegales en seres humanos y realizando pruebas que involucran formas de vida extraterrestres y amorfas conocidas como simbiontes. Durante una visita furtiva a la central, el periodista quedará infectado por un simbionte. Comenzará entonces a experimentar cambios en su cuerpo que no entiende, y escuchará una voz interior, la del simbionte Venom, que le dirá lo que tiene que hacer. Cuando Brock adquiera los poderes del simbionte que le usa como huésped, Venom tomará posesión de su cuerpo, convirtiéndole en un despiadado y peligroso súpervillano.

Título original:
Venom
Año:
2018
Duración:
112 min
País:
USA, China
Director:
Ruben Fleischer
Escritor:
Jeff Pinkner (screenplay by), Scott Rosenberg (screenplay by), Kelly Marcel (screenplay by), Jeff Pinkner (screen story by), Scott Rosenberg (screen story by), Todd McFarlane (Marvel's Venom Character created by), David Michelinie (Marvel's Venom Character created by)
Reparto:
Tom Hardy, Michelle Williams, Riz Ahmed, Scott Haze
Productora:
Columbia Pictures,Marvel Entertainment,Sony Pictures,Avi Arad Productions
Género:
Ciencia ficción
Format                                   : Matroska
Format version                           : Version 4
File size                                : 4.77 GiB
Duration                                 : 1 h 52 min
Overall bit rate                         : 6 092 kb/s
Movie name                               : www.alt-torrent.com / - By FllorTV
Encoded date                             : UTC 2018-12-27 00:56:12
Writing application                      : mkvmerge v28.2.0 ('The Awakening') 64-bit
Writing library                          : libebml v1.3.6 + libmatroska v1.4.9

Video
ID                                       : 1
Format                                   : AVC
Format/Info                              : Advanced Video Codec
Format profile                           : High@L4.2
Format settings                          : CABAC / 4 Ref Frames
Format settings, CABAC                   : Yes
Format settings, ReFrames                : 4 frames
Codec ID                                 : V_MPEG4/ISO/AVC
Duration                                 : 1 h 52 min
Bit rate                                 : 5 000 kb/s
Width                                    : 1 920 pixels
Height                                   : 800 pixels
Display aspect ratio                     : 2.40:1
Frame rate mode                          : Constant
Frame rate                               : 60.000 FPS
Color space                              : YUV
Chroma subsampling                       : 4:2:0
Bit depth                                : 8 bits
Scan type                                : Progressive
Bits/(Pixel*Frame)                       : 0.054
Stream size                              : 3.92 GiB (82%)
Title                                    : www.alt-torrent.com / - By FllorTV
Writing library                          : x264 core 148 r2762 90a61ec
Encoding settings                        : cabac=1 / ref=3 / deblock=1:0:0 / analyse=0x3:0x111 / me=hex / subme=5 / psy=1 / psy_rd=1.00:0.00 / mixed_ref=1 / me_range=16 / chroma_me=1 / trellis=0 / 8x8dct=1 / cqm=0 / deadzone=21,11 / fast_pskip=0 / chroma_qp_offset=0 / threads=24 / lookahead_threads=6 / sliced_threads=0 / nr=0 / decimate=1 / interlaced=0 / bluray_compat=0 / constrained_intra=0 / bframes=3 / b_pyramid=2 / b_adapt=1 / b_bias=0 / direct=3 / weightb=1 / open_gop=0 / weightp=1 / keyint=48 / keyint_min=4 / scenecut=40 / intra_refresh=0 / rc_lookahead=0 / rc=2pass / mbtree=0 / bitrate=5000 / ratetol=1.0 / qcomp=0.50 / qpmin=0 / qpmax=69 / qpstep=4 / cplxblur=20.0 / qblur=0.5 / vbv_maxrate=40000 / vbv_bufsize=30000 / nal_hrd=none / filler=0 / ip_ratio=1.40 / pb_ratio=1.30 / aq=0
Default                                  : Yes
Forced                                   : No
Color range                              : Limited
Matrix coefficients                      : BT.709

Audio #1
ID                                       : 2
Format                                   : AC-3
Format/Info                              : Audio Coding 3
Commercial name                          : Dolby Digital
Codec ID                                 : A_AC3
Duration                                 : 1 h 52 min
Bit rate mode                            : Constant
Bit rate                                 : 640 kb/s
Channel(s)                               : 6 channels
Channel layout                           : L R C LFE Ls Rs
Sampling rate                            : 48.0 kHz
Frame rate                               : 31.250 FPS (1536 SPF)
Bit depth                                : 16 bits
Compression mode                         : Lossy
Stream size                              : 513 MiB (11%)
Title                                    : Latino
Language                                 : Spanish
Service kind                             : Complete Main
Default                                  : Yes
Forced                                   : No

Audio #2
ID                                       : 3
Format                                   : AC-3
Format/Info                              : Audio Coding 3
Commercial name                          : Dolby Digital
Codec ID                                 : A_AC3
Duration                                 : 1 h 52 min
Bit rate mode                            : Constant
Bit rate                                 : 448 kb/s
Channel(s)                               : 6 channels
Channel layout                           : L R C LFE Ls Rs
Sampling rate                            : 48.0 kHz
Frame rate                               : 31.250 FPS (1536 SPF)
Bit depth                                : 16 bits
Compression mode                         : Lossy
Stream size                              : 359 MiB (7%)
Title                                    : Ingles
Language                                 : English
Service kind                             : Complete Main
Default                                  : No
Forced                                   : No

Text #1
ID                                       : 4
Format                                   : UTF-8
Codec ID                                 : S_TEXT/UTF8
Codec ID/Info                            : UTF-8 Plain Text
Duration                                 : 1 h 34 min
Bit rate                                 : 0 b/s
Count of elements                        : 5
Stream size                              : 135 Bytes (0%)
Title                                    : Forzados
Language                                 : Spanish
Default                                  : Yes
Forced                                   : Yes

Text #2
ID                                       : 5
Format                                   : UTF-8
Codec ID                                 : S_TEXT/UTF8
Codec ID/Info                            : UTF-8 Plain Text
Duration                                 : 1 h 50 min
Bit rate                                 : 45 b/s
Count of elements                        : 1191
Stream size                              : 36.7 KiB (0%)
Title                                    : Latino
Language                                 : Spanish
Default                                  : No
Forced                                   : No

Menu
00:00:00.000                             : :Capítulo 01
00:05:00.000                             : :Capítulo 02
00:10:00.000                             : :Capítulo 03
00:15:00.000                             : :Capítulo 04
00:20:00.000                             : :Capítulo 05
00:25:00.000                             : :Capítulo 06
00:30:00.000                             : :Capítulo 07
00:35:00.000                             : :Capítulo 08
00:40:00.000                             : :Capítulo 09
00:45:00.000                             : :Capítulo 10
00:50:00.000                             : :Capítulo 11
00:55:00.000                             : :Capítulo 12
01:00:00.000                             : :Capítulo 13
01:05:00.000                             : :Capítulo 14
01:10:00.000                             : :Capítulo 15
01:15:00.000                             : :Capítulo 16
01:20:00.000                             : :Capítulo 17
01:25:00.000                             : :Capítulo 18
01:30:00.000                             : :Capítulo 19
01:35:00.000                             : :Capítulo 20
01:40:00.000                             : :Capítulo 21
01:45:00.000                             : :Capítulo 22
01:50:00.000                             : :Capítulo 23

BitRate : 6 092 kb/s
Audio Latino : AC3 5.1
Audio Inglés : AC3 5.1

* Chrome esta marcando los .torrent como archivos peligrosos,
Descarguenlos con confianza, son los mismos torrent de siempre.



Calidad Versión Atributo Tamaño link
BR-RIP 1080p 3.28 GB venom-2018-1080p-lat.html
BR-RIP 1080p [Fixed] 3.28 GB venom-fixed-2018-1080p-lat.html
BR-RIP 1080p [H.265] 1.99 GB venom-h265-2018-1080p-lat.html
4K 2160p 9.6 GB venom-2018-4k-lat.html
FullHD 1080p [Placebo] 2.77 GB venom-2018-fullhd-lat.html
WEBDL 1080p 4.23 GB venom-2018-webdl-lat.html