5.9/10
3.613
7.0/10
3

Alt-torrent Películas con audio latino para ver y compartir

Film inspirado en el documental "Marwencol" (2010), que narraba la historia real de Mark Hogancamp, un hombre que tras sufrir un terrible asalto estuvo en coma nueve días, tras el cual se despertó con una amnesia completa. Su única terapia fue construir en su jardín unas maquetas con figuras de soldados de II Guerra Mundial...

Título original:
Welcome to Marwen
Año:
2018
Duración:
116 min
País:
USA
Director:
Robert Zemeckis
Escritor:
Robert Zemeckis (screenplay by), Caroline Thompson (screenplay by)
Reparto:
Steve Carell, Falk Hentschel, Matt O'Leary, Nikolai Witschl
Productora:
DreamWorks,ImageMovers
Género:
Drama,Comedia,Fantasía
Format                                   : Matroska
Format version                           : Version 4
File size                                : 4.19 GiB
Duration                                 : 1 h 55 min
Overall bit rate                         : 5 178 kb/s
Movie name                               : www.alt.torrent.com
Encoded date                             : UTC 2019-03-27 20:08:22
Writing application                      : mkvmerge v27.0.0 ('Metropolis') 64-bit
Writing library                          : libebml v1.3.6 + libmatroska v1.4.9

Video
ID                                       : 1
Format                                   : AVC
Format/Info                              : Advanced Video Codec
Format profile                           : [email protected]
Format settings                          : CABAC / 5 Ref Frames
Format settings, CABAC                   : Yes
Format settings, ReFrames                : 5 frames
Codec ID                                 : V_MPEG4/ISO/AVC
Duration                                 : 1 h 55 min
Bit rate                                 : 4 536 kb/s
Width                                    : 1 920 pixels
Height                                   : 802 pixels
Display aspect ratio                     : 2.40:1
Frame rate mode                          : Constant
Frame rate                               : 23.976 (24000/1001) FPS
Color space                              : YUV
Chroma subsampling                       : 4:2:0
Bit depth                                : 8 bits
Scan type                                : Progressive
Bits/(Pixel*Frame)                       : 0.123
Stream size                              : 3.67 GiB (88%)
Title                                    : www.alt.torrent.com
Language                                 : English
Default                                  : Yes
Forced                                   : No
Color range                              : Limited
Color primaries                          : BT.709
Transfer characteristics                 : BT.709
Matrix coefficients                      : BT.709

Audio #1
ID                                       : 2
Format                                   : AC-3
Format/Info                              : Audio Coding 3
Commercial name                          : Dolby Digital
Codec ID                                 : A_AC3
Duration                                 : 1 h 55 min
Bit rate mode                            : Constant
Bit rate                                 : 256 kb/s
Channel(s)                               : 2 channels
Channel layout                           : L R
Sampling rate                            : 48.0 kHz
Frame rate                               : 31.250 FPS (1536 SPF)
Bit depth                                : 16 bits
Compression mode                         : Lossy
Stream size                              : 212 MiB (5%)
Title                                    : www.alt.torrent.com
Language                                 : Spanish
Service kind                             : Complete Main
Default                                  : Yes
Forced                                   : No

Audio #2
ID                                       : 3
Format                                   : AC-3
Format/Info                              : Audio Coding 3
Commercial name                          : Dolby Digital
Codec ID                                 : A_AC3
Duration                                 : 1 h 55 min
Bit rate mode                            : Constant
Bit rate                                 : 384 kb/s
Channel(s)                               : 6 channels
Channel layout                           : L R C LFE Ls Rs
Sampling rate                            : 48.0 kHz
Frame rate                               : 31.250 FPS (1536 SPF)
Bit depth                                : 16 bits
Compression mode                         : Lossy
Stream size                              : 318 MiB (7%)
Title                                    : www.alt.torrent.com
Language                                 : English
Service kind                             : Complete Main
Default                                  : No
Forced                                   : No

Text #1
ID                                       : 4
Format                                   : UTF-8
Codec ID                                 : S_TEXT/UTF8
Codec ID/Info                            : UTF-8 Plain Text
Duration                                 : 1 h 54 min
Bit rate                                 : 1 b/s
Count of elements                        : 35
Stream size                              : 1.06 KiB (0%)
Title                                    : www.alt.torrent.com
Language                                 : Spanish
Default                                  : Yes
Forced                                   : Yes

Text #2
ID                                       : 5
Format                                   : UTF-8
Codec ID                                 : S_TEXT/UTF8
Codec ID/Info                            : UTF-8 Plain Text
Duration                                 : 1 h 54 min
Bit rate                                 : 46 b/s
Count of elements                        : 1360
Stream size                              : 39.0 KiB (0%)
Title                                    : www.alt.torrent.com
Language                                 : Spanish
Default                                  : No
Forced                                   : No

BitRate : 5 178 kb/s
Audio Latino : AC3 2.0
Audio Inglés : AC3 2.0

* Chrome esta marcando los .torrent como archivos peligrosos,
Descarguenlos con confianza, son los mismos torrent de siempre.

 AMBOS AUDIOS FINALES
+ SUBTITULO SRT LATINO


Calidad Versión Atributo Tamaño link
WEBDL 720p 3.77 GB welcome-to-marwen-720p-2018-webdl-lat.html