6.6/10
1.841
8.0/10
1

Alt-torrent Películas para ver y compartir

Bridget (Hilary Swank) es una mujer que regresa a su casa, a instancias de su hermano (Michael Shannon), para ayudar a su madre enferma de alzheimer (Blythe Danner), mientras lidia con su propio pasado.

Título original:
What They Had
Año:
2018
Duración:
101 min
País:
USA
Director:
Elizabeth Chomko
Escritor:
Elizabeth Chomko
Reparto:
Hilary Swank, Michael Shannon, Robert Forster, Blythe Danner
Productora:
June Pictures,United Pictures,Bona Fide Productions
Género:
Drama
What They Had (2018) WEBDL [1080p] ENG

Format                      : Matroska
Format version              : Version 4 / Version 2
File size                   : 3.49 GiB
Duration                    : 1 h 41 min
Overall bit rate            : 4 948 kb/s
Movie name                  : www.alt-torrent.com - By FllorTV
Encoded date                : UTC 2019-01-10 14:06:50
Writing application         : mkvmerge v30.1.0 ('Forever And More') 64-bit
Writing library             : libebml v1.3.6 + libmatroska v1.4.9

Video
ID                          : 1
Format                      : AVC
Format/Info                 : Advanced Video Codec
Format profile              : [email protected]
Format settings             : CABAC / 5 Ref Frames
Format settings, CABAC      : Yes
Format settings, RefFrames  : 5 frames
Codec ID                    : V_MPEG4/ISO/AVC
Duration                    : 1 h 41 min
Bit rate                    : 4 562 kb/s
Width                       : 1 916 pixels
Height                      : 796 pixels
Display aspect ratio        : 2.40:1
Frame rate mode             : Constant
Frame rate                  : 23.976 FPS
Color space                 : YUV
Chroma subsampling          : 4:2:0
Bit depth                   : 8 bits
Scan type                   : Progressive
Bits/(Pixel*Frame)          : 0.125
Stream size                 : 3.22 GiB (92%)
Title                       : www.alt-torrent.com - By FllorTV
Default                     : Yes
Forced                      : No
Color range                 : Limited
Color primaries             : BT.709
Transfer characteristics    : BT.709
Matrix coefficients         : BT.709

Audio
ID                          : 2
Format                      : AC-3
Format/Info                 : Audio Coding 3
Format settings, Endianness : Big
Codec ID                    : A_AC3
Duration                    : 1 h 41 min
Bit rate mode               : Constant
Bit rate                    : 384 kb/s
Channel(s)                  : 6 channels
Channel positions           : Front: L C R, Side: L R, LFE
Sampling rate               : 48.0 kHz
Frame rate                  : 31.250 FPS (1536 SPF)
Bit depth                   : 16 bits
Compression mode            : Lossy
Delay relative to video     : -42 ms
Stream size                 : 278 MiB (8%)
Title                       : Ingles
Language                    : English
Service kind                : Complete Main
Default                     : Yes
Forced                      : No

Text
ID                          : 3
Format                      : UTF-8
Codec ID                    : S_TEXT/UTF8
Codec ID/Info               : UTF-8 Plain Text
Duration                    : 1 h 33 min
Bit rate                    : 56 b/s
Count of elements           : 1268
Stream size                 : 38.6 KiB (0%)
Title                       : Latino
Language                    : Spanish
Default                     : Yes
Forced                      : Yes

Menu
00:00:00.000                : en:1
00:05:01.926                : en:2
00:09:12.760                : en:3
00:15:35.017                : en:4
00:20:43.367                : en:5
00:24:57.162                : en:6
00:29:32.604                : en:7
00:35:30.877                : en:8
00:40:50.320                : en:9
00:44:47.097                : en:10
00:49:48.147                : en:11
00:54:29.552                : en:12
01:00:43.341                : en:13
01:04:13.926                : en:14
01:10:28.842                : en:15
01:15:59.546                : en:16
01:22:05.078                : en:17
01:26:34.972                : en:18
01:30:03.095                : en:19
01:34:35.450                : en:20


BitRate : 4 948 kb/s
Audio Inglés : AC3 5.1

* Chrome esta marcando los .torrent como archivos peligrosos,
Descarguenlos con confianza, son los mismos torrent de siempre.